VERSION	0.00.00	1.03.00
FES_MODE	0
BPM_DEF	260.000	260.000	260.000	260.000
MET_DEF	4	4
RESOLUTION	384
CLK_DEF	384
COMPATIBLE_CODE	MA2

BPM	0	0	260.000
MET	0	0	4	4

HLD	2	0	0	192
HLD	2	192	7	192
HLD	3	0	6	144
HLD	3	144	5	144
TAP	3	288	4
TAP	4	0	3
TAP	4	96	2
TAP	4	192	1
TAP	4	288	0
STR	5	0	7
SCR	5	0	7	96	144	2
HLD	6	0	7	192
HLD	6	192	0	192
HLD	7	0	1	144
HLD	7	144	2	144
TAP	7	288	3
TAP	8	0	4
TAP	8	96	5
TAP	8	192	6
TAP	8	288	7
STR	9	0	0
SCL	9	0	0	96	144	5
TAP	10	0	0
TAP	10	96	1
TAP	10	192	2
TAP	10	288	3
TAP	11	0	4
TAP	11	96	5
TAP	11	144	4
TAP	11	240	4
TAP	11	288	5
TAP	12	0	5
TAP	12	96	6
TAP	12	192	7
TAP	12	288	0
STR	13	0	1
SI_	13	0	1	96	96	5
STR	13	96	5
SCR	13	96	5	96	96	0
TAP	14	0	7
TAP	14	96	6
TAP	14	192	5
TAP	14	288	4
TAP	15	0	3
TAP	15	96	2
TAP	15	144	3
TAP	15	240	3
TAP	15	288	2
TAP	16	0	2
TAP	16	96	1
TAP	16	192	0
TAP	16	288	7
STR	17	0	6
SI_	17	0	6	96	96	2
STR	17	96	2
SCL	17	96	2	96	96	7
TAP	18	0	1
TAP	18	96	0
TAP	18	192	7
TAP	18	288	6
TAP	19	0	5
TAP	19	96	5
TAP	19	144	4
TAP	19	240	4
TAP	19	288	5
TAP	20	0	4
TAP	20	96	3
TAP	20	192	2
TAP	20	288	1
STR	21	0	0
SCR	21	0	0	96	96	3
STR	21	96	3
SCR	21	96	3	96	96	6
TAP	22	0	6
TAP	22	96	7
TAP	22	192	0
TAP	22	288	1
TAP	23	0	2
TAP	23	96	2
TAP	23	144	3
TAP	23	240	3
TAP	23	288	2
TAP	24	0	3
TAP	24	96	4
TAP	24	192	5
TAP	24	288	6
STR	25	0	7
SCL	25	0	7	96	96	4
STR	25	96	4
SCL	25	96	4	96	96	1
TAP	26	0	0
TAP	26	0	5
TAP	26	96	7
TAP	26	192	6
TAP	26	288	2
TAP	26	336	3
TAP	27	48	3
TAP	27	96	2
TAP	27	192	1
TAP	27	288	5
TAP	27	336	4
TAP	28	0	5
TAP	28	96	1
STR	28	144	7
SCL	28	144	7	96	48	4
STR	28	240	2
SCL	28	240	2	96	48	7
HLD	29	96	6	96
TAP	29	192	7
TAP	29	240	6
TAP	29	288	5
TAP	30	0	1
TAP	30	0	4
TAP	30	96	2
TAP	30	192	3
TAP	30	288	5
TAP	30	336	4
TAP	31	0	6
STR	31	48	5
SCL	31	48	5	96	48	2
TAP	31	288	1
TAP	31	336	0
TAP	32	0	2
TAP	32	96	6
TAP	32	144	7
TAP	32	192	6
STR	32	240	6
SI_	32	240	6	96	48	3
STR	32	336	0
SI_	32	336	0	96	48	4
STR	33	48	7
SI_	33	48	7	96	48	3
STR	33	144	1
SI_	33	144	1	96	48	4
TAP	33	240	7
TAP	33	288	7
TAP	34	0	2
TAP	34	0	7
TAP	34	96	0
TAP	34	192	1
TAP	34	288	5
TAP	34	336	4
TAP	35	48	4
TAP	35	96	5
TAP	35	192	6
TAP	35	288	2
TAP	35	336	3
TAP	36	0	2
TAP	36	96	6
STR	36	144	0
SCR	36	144	0	96	48	3
STR	36	240	5
SCR	36	240	5	96	48	0
HLD	37	96	1	96
TAP	37	192	0
TAP	37	240	1
TAP	37	288	2
TAP	38	0	3
TAP	38	0	6
TAP	38	96	5
TAP	38	192	4
TAP	38	288	2
TAP	38	336	3
TAP	39	0	1
STR	39	48	2
SCR	39	48	2	96	48	5
TAP	39	288	6
TAP	39	336	7
TAP	40	0	5
TAP	40	96	1
TAP	40	144	0
TAP	40	192	1
STR	40	240	1
SI_	40	240	1	96	48	4
STR	40	336	7
SI_	40	336	7	96	48	3
STR	41	48	0
SI_	41	48	0	96	48	4
STR	41	144	6
SI_	41	144	6	96	48	3
TAP	41	240	0
TAP	41	288	0
STR	42	0	6
SCL	42	0	6	96	96	3
STR	42	144	1
SCL	42	144	1	96	96	6
STR	42	288	4
SCL	42	288	4	96	96	1
HLD	43	96	7	96
HLD	43	192	5	96
HLD	43	288	3	96
STR	44	0	1
SCR	44	0	1	96	96	4
STR	44	144	6
SCR	44	144	6	96	96	1
STR	44	288	3
SCR	44	288	3	96	96	6
HLD	45	96	0	96
HLD	45	192	2	96
HLD	45	288	4	96
STR	46	0	6
SCL	46	0	6	96	96	3
STR	46	144	1
SCL	46	144	1	96	96	6
STR	46	288	4
SCL	46	288	4	96	96	1
TAP	47	0	5
TAP	47	96	6
TAP	47	192	7
TAP	47	288	0
STR	48	0	1
SI_	48	0	1	96	96	5
STR	48	96	5
SI_	48	96	5	96	96	0
STR	48	192	0
SI_	48	192	0	96	96	4
TAP	49	192	5
TAP	49	288	4
STR	50	0	3
SCR	50	0	3	96	96	6
STR	50	144	1
SCR	50	144	1	96	96	4
STR	50	288	7
SCR	50	288	7	96	96	2
STR	51	96	6
SI_	51	96	6	96	96	2
STR	51	192	2
SI_	51	192	2	96	96	6
STR	52	0	4
SCL	52	0	4	96	96	1
STR	52	144	6
SCL	52	144	6	96	96	3
STR	52	288	0
SCL	52	288	0	96	96	5
TAP	53	96	1
TAP	53	192	5
STR	53	240	4
SCL	53	240	4	96	96	1
TAP	54	96	0
TAP	54	192	7
TAP	54	288	2
TAP	54	336	3
TAP	55	48	5
TAP	55	96	4
TAP	55	144	6
TAP	55	192	1
TAP	55	240	0
TAP	55	288	1
TAP	56	0	6
TAP	56	0	7
TAP	56	48	6
TAP	56	48	7
TAP	56	144	2
TAP	56	144	3
TAP	56	192	2
TAP	56	192	3
TAP	56	288	0
TAP	56	288	1
TAP	56	336	0
TAP	56	336	1
TAP	57	48	4
TAP	57	48	5
TAP	57	96	4
TAP	57	96	5
STR	57	192	3
SI_	57	192	3	96	48	7
BRK	57	192	7
TAP	58	0	0
TAP	58	96	1
TAP	58	192	2
STR	58	288	6
SCL	58	288	6	96	48	3
TAP	58	336	6
STR	59	48	2
SCR	59	48	2	96	48	5
TAP	59	96	2
TAP	59	192	0
TAP	59	288	7
TAP	60	0	6
TAP	60	96	5
TAP	60	192	4
STR	60	288	1
SCR	60	288	1	96	48	4
TAP	60	336	1
STR	61	48	5
SCL	61	48	5	96	48	2
TAP	61	96	5
TAP	61	192	7
TAP	61	288	0
TAP	62	0	1
TAP	62	96	2
TAP	62	192	5
TAP	62	240	4
TAP	62	336	6
TAP	63	48	7
STR	63	96	0
SI_	63	96	0	96	48	4
STR	63	192	7
SI_	63	192	7	96	48	3
STR	63	288	1
SI_	63	288	1	96	48	4
STR	64	0	5
SCR	64	0	5	96	48	0
STR	64	96	1
SCR	64	96	1	96	48	4
STR	64	192	7
SI_	64	192	7	96	48	3
STR	65	192	0
SCL	65	192	0	96	48	5
TAP	65	192	5
TAP	66	0	2
TAP	66	96	3
TAP	66	192	4
STR	66	288	5
SI_	66	288	5	96	48	0
TAP	66	336	5
STR	67	48	7
SCR	67	48	7	96	48	2
TAP	67	96	7
TAP	67	192	5
TAP	67	288	6
TAP	68	0	7
TAP	68	96	0
TAP	68	192	1
STR	68	240	1
SCR	68	240	1	96	48	4
HLD	69	96	7	96
TAP	69	192	6
STR	69	240	6
SCL	69	240	6	96	48	3
HLD	70	96	0	96
TAP	70	192	1
TAP	70	240	0
STR	71	0	7
SI_	71	0	7	96	96	3
STR	71	96	3
SI_	71	96	3	96	96	6
STR	71	192	6
SI_	71	192	6	96	96	1
STR	71	288	1
SCR	71	288	1	96	48	4
TAP	72	96	2
TAP	72	96	7
TAP	72	240	0
TAP	72	240	5
TAP	73	0	3
TAP	73	0	6
TAP	73	144	2
TAP	73	168	3
TAP	73	192	2
TAP	73	216	3
TAP	73	240	2
TAP	73	264	3
TAP	73	288	2
TAP	73	336	6
TAP	74	0	7
TAP	74	48	5
TAP	74	96	0
TAP	74	144	4
TAP	74	192	1
TAP	74	240	3
TAP	74	288	1
TAP	74	336	0
TAP	75	0	2
TAP	75	48	7
TAP	75	96	3
TAP	75	144	6
BRK	75	192	1
BRK	75	192	5
BRK	75	336	3
BRK	75	336	7
TAP	76	96	1
TAP	76	96	6
TAP	76	192	2
TAP	76	216	3
TAP	76	240	4
TAP	76	264	5
TAP	77	0	5
TAP	77	24	4
TAP	77	48	3
TAP	77	72	2
TAP	77	192	2
TAP	77	216	3
TAP	77	240	4
TAP	77	264	5
TAP	78	0	0
TAP	78	0	7
TAP	78	96	2
TAP	78	144	3
TAP	78	192	2
TAP	78	240	4
TAP	78	288	3
TAP	78	336	4
TAP	78	336	5
TAP	79	0	2
TAP	79	48	3
TAP	79	96	2
BRK	79	192	1
BRK	79	192	5
BRK	79	336	3
BRK	79	336	7
STR	80	96	0
SI_	80	96	0	96	48	3
STR	80	96	6
SI_	80	96	6	96	48	3
STR	80	348	2
SCL	80	348	2	96	48	7
STR	80	348	5
SCL	80	348	5	96	48	2
STR	81	192	2
SI_	81	192	2	96	48	6
STR	81	192	7
SI_	81	192	7	96	48	2
STR	82	96	0
SCR	82	96	0	96	48	3
STR	82	96	5
SCR	82	96	5	96	48	0
TAP	83	0	0
STR	83	0	4
SI_	83	0	4	96	48	0
BRK	83	192	2
BRK	83	192	6
BRK	83	336	0
BRK	83	336	4
TAP	84	96	3
TAP	84	96	6
TAP	84	192	5
TAP	84	240	4
TAP	84	288	6
TAP	84	336	2
HLD	85	0	7	288
STR	85	96	4
SI_	85	96	4	96	48	0
HLD	86	0	5	672
HLD	87	0	1	288
STR	88	0	1
SI_	88	0	1	96	96	5
STR	88	96	5
SI_	88	96	5	96	96	1
STR	88	288	6
SCL	88	288	6	96	48	3
TAP	88	336	6
STR	89	48	2
SCR	89	48	2	96	48	5
TAP	89	96	2
TAP	89	192	7
TAP	89	288	6
STR	90	0	5
SCL	90	0	5	96	48	2
TAP	90	192	1
STR	90	240	1
SI_	90	240	1	96	48	4
TAP	91	48	7
STR	91	96	7
SCL	91	96	7	96	48	4
TAP	91	192	2
STR	91	240	2
SCL	91	240	2	96	48	7
TAP	92	96	5
TAP	92	192	4
STR	92	288	1
SCR	92	288	1	96	48	4
TAP	92	336	1
STR	93	48	5
SCL	93	48	5	96	48	2
TAP	93	96	5
HLD	93	192	1	96
STR	93	288	2
SI_	93	288	2	96	48	7
STR	94	0	4
SI_	94	0	4	96	48	0
STR	94	96	3
SI_	94	96	3	96	48	7
STR	94	192	5
SI_	94	192	5	96	48	0
STR	95	192	0
SI_	95	192	0	96	48	4
STR	96	0	6
SI_	96	0	6	96	96	2
STR	96	96	2
SI_	96	96	2	96	96	6
STR	96	288	1
SCR	96	288	1	96	48	4
TAP	96	336	1
STR	97	48	5
SCL	97	48	5	96	48	2
TAP	97	96	5
TAP	97	192	0
TAP	97	288	1
STR	98	0	2
SCR	98	0	2	96	48	5
TAP	98	192	6
STR	98	240	6
SI_	98	240	6	96	48	3
TAP	99	48	0
STR	99	96	0
SCR	99	96	0	96	48	3
TAP	99	192	5
STR	99	240	5
SCR	99	240	5	96	48	0
HLD	100	96	1	96
STR	100	192	7
SCL	100	192	7	96	48	4
TAP	100	240	7
TAP	100	336	0
STR	101	48	1
SCR	101	48	1	96	48	4
TAP	101	96	1
TAP	101	192	7
STR	101	288	6
SCL	101	288	6	96	48	3
TAP	101	336	6
TAP	102	48	2
STR	102	96	2
SI_	102	96	2	96	96	6
STR	102	192	6
SCR	102	192	6	96	96	1
STR	102	288	1
SCR	102	288	1	96	96	4
TAP	104	0	4
TAP	104	48	3
TAP	104	96	2
TAP	104	144	1
TAP	104	192	0
TAP	104	216	1
TAP	104	240	2
TAP	104	264	3
TAP	104	288	4
TAP	104	312	5
TAP	104	336	6
TAP	104	360	7
TAP	105	0	0
TAP	105	96	0
TAP	105	192	6
STR	105	240	6
SCL	105	240	6	96	48	3
TAP	106	48	0
STR	106	96	0
SI_	106	96	0	96	48	4
STR	106	192	7
SI_	106	192	7	96	48	3
TAP	107	0	1
TAP	107	96	2
TAP	107	192	6
STR	107	240	6
SCL	107	240	6	96	48	3
TAP	108	48	1
STR	108	96	1
SI_	108	96	1	96	48	4
STR	108	192	7
SI_	108	192	7	96	48	3
TAP	109	0	0
TAP	109	96	0
TAP	109	192	1
STR	109	240	1
SCR	109	240	1	96	48	4
TAP	110	48	7
STR	110	96	7
SI_	110	96	7	96	48	3
STR	110	192	0
SI_	110	192	0	96	48	4
TAP	111	0	6
STR	111	96	7
SI_	111	96	7	96	48	3
STR	111	192	0
SI_	111	192	0	96	48	4
STR	111	288	6
SI_	111	288	6	96	48	3
STR	112	0	2
SCL	112	0	2	96	48	7
STR	112	96	6
SCL	112	96	6	96	48	3
STR	112	192	0
SI_	112	192	0	96	48	4
TAP	113	0	1
TAP	113	96	2
TAP	113	192	6
STR	113	240	6
SCL	113	240	6	96	48	3
TAP	114	48	1
STR	114	96	1
SCR	114	96	1	96	48	4
STR	114	192	7
SI_	114	192	7	96	48	2
TAP	115	0	6
TAP	115	96	5
TAP	115	192	1
STR	115	240	1
SCR	115	240	1	96	48	4
TAP	116	48	6
STR	116	96	6
SCL	116	96	6	96	48	3
STR	116	192	0
SI_	116	192	0	96	48	5
TAP	117	0	7
TAP	117	96	6
TAP	117	192	5
STR	117	240	5
SI_	117	240	5	96	48	1
TAP	118	48	0
STR	118	96	0
SI_	118	96	0	96	48	4
BRK	118	288	7
STR	119	0	0
SI_	119	0	0	96	48	4
TAP	119	48	0
STR	119	144	6
SCL	119	144	6	96	48	3
TAP	119	192	6
STR	119	288	1
SCR	119	288	1	96	48	4
TAP	119	336	1
STR	120	48	5
SCR	120	48	5	96	48	0
TAP	120	96	5
TAP	120	192	2
TAP	120	288	2
STR	121	0	7
SI_	121	0	7	96	48	3
TAP	121	48	7
STR	121	144	2
SCR	121	144	2	96	48	5
TAP	121	192	2
STR	121	288	6
SCL	121	288	6	96	48	3
TAP	121	336	6
TAP	122	48	2
STR	122	96	2
SCL	122	96	2	96	96	7
STR	122	192	7
SCL	122	192	7	96	96	4
TAP	123	336	5
TAP	123	360	4
TAP	124	0	3
TAP	124	24	2

T_REC_TAP	326
T_REC_BRK	14
T_REC_XTP	0
T_REC_HLD	23
T_REC_XHO	0
T_REC_STR	136
T_REC_BST	0
T_REC_XST	0
T_REC_TTP	0
T_REC_THO	0
T_REC_SLD	136
T_REC_ALL	635
T_NUM_TAP	462
T_NUM_BRK	14
T_NUM_HLD	23
T_NUM_SLD	136
T_NUM_ALL	635
T_JUDGE_TAP	476
T_JUDGE_HLD	41
T_JUDGE_SLD	136
T_JUDGE_ALL	653
TTM_EACHPAIRS	32
TTM_SCR_TAP	231000
TTM_SCR_BRK	36400
TTM_SCR_HLD	23000
TTM_SCR_SLD	204000
TTM_SCR_ALL	494400
TTM_SCR_S	478250
TTM_SCR_SS	493000
TTM_RAT_ACV	10028

