VERSION	0.00.00	1.03.00
FES_MODE	0
BPM_DEF	260.000	260.000	260.000	260.000
MET_DEF	4	4
RESOLUTION	384
CLK_DEF	384
COMPATIBLE_CODE	MA2

BPM	0	0	260.000
MET	0	0	4	4

HLD	2	0	6	1152
STR	4	0	1
SCR	4	0	1	96	288	4
HLD	6	0	1	1152
STR	8	0	6
SCL	8	0	6	96	288	3
TAP	10	0	7
TAP	10	192	7
HLD	11	0	7	144
HLD	11	144	0	144
HLD	11	288	1	96
HLD	12	0	2	192
TAP	12	192	3
TAP	13	0	0
TAP	13	0	1
TAP	13	96	7
TAP	13	192	6
TAP	14	0	0
TAP	14	192	0
HLD	15	0	0	144
HLD	15	144	7	144
HLD	15	288	6	96
HLD	16	0	5	192
TAP	16	192	4
TAP	17	0	6
TAP	17	0	7
TAP	17	96	0
TAP	17	192	1
TAP	18	0	0
TAP	18	0	1
TAP	18	192	5
TAP	18	192	7
HLD	19	0	6	144
HLD	19	144	0	144
HLD	19	288	7	96
STR	20	0	0
SI_	20	0	0	96	96	4
STR	20	192	3
SI_	20	192	3	96	96	7
TAP	21	0	0
TAP	21	96	1
TAP	21	192	0
TAP	21	192	2
TAP	22	0	6
TAP	22	0	7
TAP	22	192	0
TAP	22	192	2
HLD	23	0	1	144
HLD	23	144	7	144
HLD	23	288	0	96
STR	24	0	7
SI_	24	0	7	96	96	3
STR	24	192	4
SI_	24	192	4	96	96	0
TAP	25	0	7
TAP	25	96	6
BRK	25	192	0
BRK	25	192	5
HLD	26	0	1	192
HLD	26	192	2	192
HLD	27	0	3	144
TAP	27	144	4
TAP	27	288	4
HLD	28	0	5	192
HLD	28	192	6	384
TAP	28	336	7
TAP	29	96	5
TAP	29	192	5
TAP	29	288	6
HLD	30	0	6	192
HLD	30	192	5	192
HLD	31	0	4	144
TAP	31	144	3
TAP	31	288	3
HLD	32	0	2	192
HLD	32	192	1	432
TAP	32	336	2
TAP	33	48	2
TAP	33	144	2
TAP	33	240	2
TAP	33	288	1
HLD	34	0	1	192
HLD	34	192	2	192
HLD	35	0	3	144
TAP	35	144	4
TAP	35	288	4
HLD	36	0	5	192
HLD	36	192	6	384
TAP	36	336	7
TAP	37	96	5
TAP	37	192	5
TAP	37	288	6
HLD	38	0	6	192
HLD	38	192	5	192
HLD	39	0	4	144
TAP	39	144	3
TAP	39	288	3
HLD	40	0	2	192
HLD	40	192	1	432
TAP	40	336	2
TAP	41	48	2
TAP	41	144	2
TAP	41	240	2
BRK	41	288	1
HLD	42	0	7	144
HLD	42	144	6	144
TAP	42	288	5
TAP	43	96	3
TAP	43	192	2
TAP	43	288	1
HLD	44	0	0	144
HLD	44	144	1	144
TAP	44	288	2
TAP	45	96	4
TAP	45	192	5
TAP	45	288	6
HLD	46	0	7	144
HLD	46	144	6	144
TAP	46	288	5
TAP	47	0	4
TAP	47	96	3
TAP	47	192	2
TAP	47	288	1
TAP	48	0	0
TAP	48	96	7
STR	48	192	6
SCL	48	192	6	96	192	3
TAP	49	192	2
TAP	49	288	1
HLD	50	0	0	144
HLD	50	144	7	144
TAP	50	288	6
TAP	51	96	3
TAP	51	192	4
TAP	51	288	5
HLD	52	0	7	144
HLD	52	144	0	144
TAP	52	288	1
TAP	53	96	1
TAP	53	192	2
TAP	53	288	3
HLD	54	0	4	192
TAP	54	96	5
HLD	54	192	3	192
TAP	54	288	2
HLD	55	0	4	192
TAP	55	96	5
HLD	55	192	3	96
TAP	55	288	2
TAP	56	0	1
TAP	56	48	1
TAP	56	144	7
TAP	56	192	7
TAP	56	288	3
TAP	56	336	3
TAP	57	48	5
BRK	57	96	5
TAP	58	0	0
TAP	58	96	7
TAP	58	192	6
TAP	58	288	4
TAP	58	336	5
TAP	59	48	5
TAP	59	96	4
TAP	59	192	2
TAP	59	288	2
TAP	60	0	7
TAP	60	96	0
TAP	60	192	1
TAP	60	288	3
TAP	60	336	2
TAP	61	48	2
TAP	61	96	3
TAP	61	192	5
TAP	61	288	5
TAP	62	0	6
TAP	62	96	5
TAP	62	192	4
TAP	62	288	2
TAP	62	336	3
TAP	63	48	3
TAP	63	96	2
TAP	63	192	4
TAP	63	288	5
TAP	64	0	6
TAP	64	96	7
STR	64	192	0
SI_	64	192	0	96	192	4
TAP	65	192	6
TAP	65	288	6
TAP	66	0	7
TAP	66	96	0
TAP	66	192	1
TAP	66	288	5
TAP	66	336	4
TAP	67	48	4
TAP	67	96	3
TAP	67	192	2
TAP	67	288	2
TAP	67	288	3
TAP	68	0	0
TAP	68	96	7
TAP	68	192	6
TAP	68	288	2
TAP	68	336	3
TAP	69	48	3
TAP	69	96	4
TAP	69	192	5
TAP	69	288	4
TAP	69	288	5
TAP	70	0	1
TAP	70	96	2
TAP	70	192	3
TAP	70	288	5
TAP	70	336	4
TAP	71	48	4
TAP	71	96	5
TAP	71	192	3
TAP	71	288	2
TAP	72	0	2
TAP	72	96	4
TAP	72	96	5
TAP	72	240	6
TAP	72	240	7
TAP	73	0	0
TAP	73	0	1
TAP	73	144	2
TAP	73	144	3
TAP	73	288	5
TAP	73	336	4
TAP	74	0	5
TAP	74	96	3
TAP	74	96	4
TAP	74	192	2
TAP	74	240	3
TAP	74	288	2
TAP	75	0	5
TAP	75	48	4
TAP	75	96	5
BRK	75	192	3
BRK	75	192	7
BRK	75	336	1
BRK	75	336	5
TAP	76	96	6
TAP	76	192	2
TAP	76	240	3
TAP	76	288	4
TAP	77	0	5
TAP	77	48	4
TAP	77	96	3
TAP	77	192	2
TAP	77	240	3
TAP	77	288	4
TAP	78	0	5
TAP	78	0	7
TAP	78	96	2
TAP	78	144	3
TAP	78	192	2
TAP	78	240	3
TAP	78	288	2
TAP	79	0	5
TAP	79	48	4
TAP	79	96	5
BRK	79	192	2
BRK	79	192	6
BRK	79	336	0
BRK	79	336	4
HLD	80	96	2	96
HLD	80	96	7	96
HLD	80	348	1	96
HLD	80	348	4	96
HLD	81	192	3	96
HLD	81	192	6	96
HLD	82	96	0	96
HLD	82	96	5	96
HLD	83	0	1	96
TAP	83	96	3
BRK	83	192	2
BRK	83	192	6
BRK	83	336	0
BRK	83	336	4
TAP	84	96	2
TAP	84	96	7
TAP	84	192	5
TAP	84	240	4
TAP	84	288	5
STR	85	0	3
SI_	85	0	3	96	192	7
HLD	86	0	0	672
HLD	87	0	7	288
TAP	88	0	0
TAP	88	96	7
TAP	88	192	6
TAP	88	288	5
HLD	88	336	5	144
TAP	89	96	4
TAP	89	192	1
TAP	89	288	1
TAP	90	0	0
TAP	90	96	1
TAP	90	192	2
STR	90	240	2
SCR	90	240	2	96	96	5
TAP	91	96	7
TAP	91	192	7
STR	91	240	0
SI_	91	240	0	96	96	5
TAP	92	96	7
TAP	92	192	0
TAP	92	288	0
STR	92	336	7
SI_	92	336	7	96	96	2
TAP	93	192	1
TAP	93	288	0
STR	94	0	7
SI_	94	0	7	96	96	3
STR	94	192	1
SI_	94	192	1	96	96	5
TAP	95	192	5
TAP	95	288	6
TAP	96	0	7
TAP	96	96	0
TAP	96	192	1
TAP	96	288	2
HLD	96	336	2	144
TAP	97	96	3
TAP	97	192	6
TAP	97	288	6
TAP	98	0	7
TAP	98	96	6
TAP	98	192	5
STR	98	240	5
SCL	98	240	5	96	96	2
TAP	99	96	1
TAP	99	192	1
TAP	99	240	2
HLD	99	336	2	144
TAP	100	96	3
TAP	100	192	3
TAP	100	240	4
STR	100	336	5
SI_	100	336	5	96	96	0
TAP	101	192	7
STR	101	336	2
SI_	101	336	2	96	96	7
HLD	102	192	0	192
BRK	103	0	7
TAP	105	0	0
TAP	105	96	6
TAP	105	96	7
TAP	105	192	5
TAP	105	336	0
TAP	106	48	0
TAP	106	96	1
TAP	106	192	1
TAP	106	288	2
TAP	107	0	7
TAP	107	96	0
TAP	107	96	1
TAP	107	192	2
TAP	107	336	7
TAP	108	48	7
TAP	108	96	6
TAP	108	192	6
TAP	108	288	5
TAP	109	0	4
TAP	109	96	2
TAP	109	96	3
TAP	109	192	1
TAP	109	336	4
TAP	110	48	4
TAP	110	96	5
TAP	110	192	5
TAP	110	288	6
TAP	111	0	3
TAP	111	96	4
TAP	111	96	5
TAP	111	192	6
TAP	111	336	3
TAP	112	48	3
TAP	112	96	2
TAP	112	192	2
TAP	112	288	1
TAP	113	0	2
TAP	113	96	3
TAP	113	192	5
TAP	113	240	4
TAP	113	336	3
TAP	113	336	4
TAP	114	48	4
TAP	114	96	5
TAP	114	192	5
TAP	114	288	6
TAP	115	0	5
TAP	115	96	4
TAP	115	192	2
TAP	115	240	3
TAP	115	336	3
TAP	115	336	4
TAP	116	48	3
TAP	116	96	2
TAP	116	192	2
TAP	116	288	1
TAP	117	0	0
TAP	117	96	7
TAP	117	192	7
TAP	117	240	6
TAP	117	336	6
TAP	118	48	4
TAP	118	96	5
TAP	118	192	2
TAP	118	288	1
TAP	119	0	0
TAP	119	48	0
TAP	119	144	6
TAP	119	192	6
TAP	119	288	2
TAP	119	336	2
TAP	120	48	4
TAP	120	96	4
TAP	121	0	7
TAP	121	48	6
TAP	121	48	7
TAP	121	144	1
TAP	121	192	0
TAP	121	192	1
TAP	121	288	5
TAP	121	336	4
TAP	121	336	5
TAP	122	48	3
TAP	122	96	2
TAP	122	96	3
TAP	122	192	2
TAP	122	240	3
TAP	122	288	4
BRK	122	336	5

T_REC_TAP	319
T_REC_BRK	18
T_REC_XTP	0
T_REC_HLD	65
T_REC_XHO	0
T_REC_STR	17
T_REC_BST	0
T_REC_XST	0
T_REC_TTP	0
T_REC_THO	0
T_REC_SLD	17
T_REC_ALL	436
T_NUM_TAP	336
T_NUM_BRK	18
T_NUM_HLD	65
T_NUM_SLD	17
T_NUM_ALL	436
T_JUDGE_TAP	354
T_JUDGE_HLD	152
T_JUDGE_SLD	17
T_JUDGE_ALL	523
TTM_EACHPAIRS	37
TTM_SCR_TAP	168000
TTM_SCR_BRK	46800
TTM_SCR_HLD	65000
TTM_SCR_SLD	25500
TTM_SCR_ALL	305300
TTM_SCR_S	294400
TTM_SCR_SS	303500
TTM_RAT_ACV	10059

