VERSION	0.00.00	1.03.00
FES_MODE	0
BPM_DEF	260.000	260.000	260.000	260.000
MET_DEF	4	4
RESOLUTION	384
CLK_DEF	384
COMPATIBLE_CODE	MA2

BPM	0	0	260.000
MET	0	0	4	4

HLD	2	0	7	576
TAP	4	0	3
TAP	5	0	3
TAP	5	192	3
HLD	6	0	0	576
TAP	8	0	4
TAP	9	0	4
TAP	9	192	4
TAP	10	0	5
TAP	10	192	1
TAP	11	0	0
TAP	11	96	0
TAP	11	192	0
TAP	12	0	6
TAP	12	96	6
TAP	12	192	6
TAP	13	0	3
TAP	13	96	3
TAP	13	192	3
TAP	14	0	2
TAP	14	192	6
TAP	15	0	7
TAP	15	96	7
TAP	15	192	7
TAP	16	0	1
TAP	16	96	1
TAP	16	192	1
TAP	17	0	5
TAP	17	96	5
TAP	17	192	5
TAP	18	0	3
TAP	18	192	7
TAP	19	0	0
TAP	19	96	0
TAP	19	192	0
TAP	20	0	5
TAP	20	96	5
TAP	20	192	5
TAP	21	0	2
TAP	21	96	2
TAP	21	192	2
TAP	22	0	4
TAP	22	192	0
TAP	23	0	7
TAP	23	96	7
TAP	23	192	7
TAP	24	0	2
TAP	24	96	2
TAP	24	192	2
TAP	25	0	5
TAP	25	96	5
TAP	25	192	5
HLD	26	0	4	192
HLD	26	192	3	192
TAP	27	0	4
TAP	27	192	4
TAP	28	0	5
TAP	28	192	6
HLD	29	0	7	192
HLD	30	0	6	192
HLD	30	192	7	192
TAP	31	0	6
TAP	31	192	6
TAP	32	0	7
TAP	32	192	0
HLD	33	0	1	192
HLD	34	0	0	192
HLD	34	192	6	192
TAP	35	0	7
TAP	35	192	7
TAP	36	0	0
TAP	36	192	1
HLD	37	0	1	192
HLD	38	0	1	192
HLD	38	192	3	192
TAP	39	0	2
TAP	39	192	2
TAP	40	0	1
TAP	40	192	0
HLD	41	0	0	192
HLD	42	0	7	288
HLD	42	288	6	288
TAP	43	192	5
HLD	44	0	0	288
HLD	44	288	1	288
TAP	45	192	2
HLD	46	0	5	288
HLD	46	288	4	288
TAP	47	192	3
TAP	48	0	3
TAP	48	96	4
TAP	48	192	5
HLD	48	288	6	288
HLD	50	0	0	288
HLD	50	288	6	288
TAP	51	192	2
HLD	52	0	3	288
HLD	52	288	5	288
TAP	53	192	1
STR	54	0	0
SI_	54	0	0	96	144	5
STR	55	0	6
SI_	55	0	6	96	144	2
TAP	56	0	0
TAP	56	0	7
TAP	56	144	0
TAP	56	144	7
TAP	56	288	0
TAP	56	288	7
BRK	57	48	0
BRK	57	48	7
TAP	58	0	1
TAP	58	96	1
TAP	58	192	0
TAP	58	288	0
STR	58	336	7
SI_	58	336	7	96	144	2
TAP	60	0	6
TAP	60	96	6
TAP	60	192	7
TAP	60	288	7
STR	60	336	0
SI_	60	336	0	96	144	5
TAP	62	0	1
TAP	62	96	1
TAP	62	192	2
TAP	62	288	2
STR	62	336	3
SI_	62	336	3	96	144	6
TAP	64	0	2
TAP	64	96	1
TAP	64	192	0
HLD	64	288	7	288
TAP	66	0	0
TAP	66	96	0
TAP	66	192	6
TAP	66	288	6
STR	66	336	5
SI_	66	336	5	96	144	2
TAP	68	0	4
TAP	68	96	4
TAP	68	192	2
TAP	68	288	2
STR	68	336	1
SI_	68	336	1	96	144	6
TAP	70	0	1
TAP	70	192	6
TAP	71	0	2
TAP	71	96	2
TAP	71	192	5
TAP	71	288	5
BRK	72	0	3
BRK	72	0	4
TAP	75	192	2
TAP	75	192	3
TAP	75	336	0
TAP	75	336	6
TAP	79	192	1
TAP	79	192	7
TAP	79	336	4
TAP	79	336	5
TAP	83	192	3
TAP	83	192	4
TAP	83	336	1
TAP	83	336	6
HLD	86	0	2	384
HLD	87	0	6	384
TAP	88	0	0
TAP	88	96	0
TAP	88	192	1
TAP	88	288	1
TAP	89	0	2
TAP	89	96	2
TAP	89	192	4
TAP	89	288	4
TAP	90	0	7
TAP	90	96	7
TAP	90	192	6
TAP	90	288	6
HLD	91	0	5	192
TAP	92	0	2
TAP	92	96	2
TAP	92	192	4
TAP	92	288	4
TAP	93	0	6
TAP	93	96	6
TAP	93	192	5
TAP	93	288	5
TAP	94	0	4
TAP	94	96	3
TAP	94	192	2
HLD	94	288	1	288
TAP	96	0	1
TAP	96	96	1
TAP	96	192	4
TAP	96	288	4
TAP	97	0	6
TAP	97	96	6
TAP	97	192	3
TAP	97	288	3
TAP	98	0	7
TAP	98	96	7
TAP	98	192	5
TAP	98	288	5
TAP	99	0	3
TAP	99	96	3
TAP	99	192	1
TAP	99	288	1
TAP	100	0	0
TAP	100	96	0
TAP	100	192	5
TAP	100	288	5
TAP	101	0	2
TAP	101	96	2
HLD	101	192	2	96
TAP	102	0	6
TAP	102	96	6
HLD	102	192	6	96
HLD	103	0	1	576
HLD	103	0	3	576
TAP	105	0	0
TAP	105	192	1
TAP	106	0	4
TAP	106	96	4
TAP	106	192	3
TAP	107	0	6
TAP	107	96	6
TAP	107	192	7
TAP	108	0	2
TAP	108	96	2
TAP	108	192	5
TAP	108	288	4
TAP	109	0	6
TAP	109	192	0
TAP	110	0	2
TAP	110	96	4
TAP	110	192	3
TAP	111	0	3
TAP	111	96	2
TAP	111	192	1
HLD	111	288	0	288
TAP	113	0	7
TAP	113	192	6
TAP	114	0	3
TAP	114	96	3
TAP	114	192	4
TAP	115	0	1
TAP	115	96	1
TAP	115	192	0
TAP	116	0	5
TAP	116	96	5
TAP	116	192	2
TAP	116	288	3
TAP	117	0	1
TAP	117	192	7
TAP	118	0	5
TAP	118	96	3
TAP	118	192	4
TAP	119	0	4
TAP	119	0	5
TAP	119	144	4
TAP	119	144	5
TAP	119	288	4
TAP	119	288	5
TAP	120	48	4
TAP	120	48	5
TAP	121	0	2
TAP	121	0	3
TAP	121	144	2
TAP	121	144	3
TAP	121	288	2
TAP	121	288	3
TAP	122	48	2
TAP	122	48	3
BRK	122	336	1
BRK	122	336	6

T_REC_TAP	221
T_REC_BRK	6
T_REC_XTP	0
T_REC_HLD	35
T_REC_XHO	0
T_REC_STR	7
T_REC_BST	0
T_REC_XST	0
T_REC_TTP	0
T_REC_THO	0
T_REC_SLD	7
T_REC_ALL	276
T_NUM_TAP	228
T_NUM_BRK	6
T_NUM_HLD	35
T_NUM_SLD	7
T_NUM_ALL	276
T_JUDGE_TAP	234
T_JUDGE_HLD	102
T_JUDGE_SLD	7
T_JUDGE_ALL	343
TTM_EACHPAIRS	21
TTM_SCR_TAP	114000
TTM_SCR_BRK	15600
TTM_SCR_HLD	35000
TTM_SCR_SLD	10500
TTM_SCR_ALL	175100
TTM_SCR_S	169300
TTM_SCR_SS	174500
TTM_RAT_ACV	10034

