VERSION	0.00.00	1.03.00
FES_MODE	0
BPM_DEF	260.000	260.000	260.000	260.000
MET_DEF	4	4
RESOLUTION	384
CLK_DEF	384
COMPATIBLE_CODE	MA2

BPM	0	0	260.000
MET	0	0	4	4

TAP	10	0	6
TAP	11	0	5
TAP	11	192	5
TAP	12	0	6
HLD	13	0	7	192
TAP	14	0	1
TAP	15	0	2
TAP	15	192	2
TAP	16	0	1
HLD	17	0	0	192
TAP	18	0	6
TAP	19	0	5
TAP	19	192	5
TAP	20	0	6
HLD	21	0	7	192
TAP	22	0	0
TAP	23	0	1
TAP	23	192	1
STR	24	0	0
SI_	24	0	0	96	312	3
TAP	26	0	5
TAP	27	0	6
TAP	28	0	6
TAP	29	0	5
TAP	29	192	4
TAP	30	0	3
TAP	31	0	2
TAP	32	0	1
HLD	33	0	0	192
TAP	34	0	1
TAP	35	0	2
TAP	36	0	2
TAP	37	0	1
TAP	37	192	0
TAP	38	0	7
TAP	39	0	5
TAP	40	0	5
TAP	40	192	4
HLD	41	0	3	192
TAP	42	0	0
TAP	42	0	1
TAP	43	192	2
TAP	44	0	3
TAP	45	192	5
TAP	46	0	4
TAP	47	0	4
TAP	47	0	5
HLD	48	0	2	384
HLD	48	0	3	384
TAP	50	0	4
TAP	50	0	5
TAP	51	192	3
TAP	52	0	2
TAP	53	192	1
TAP	54	0	0
TAP	54	192	7
TAP	55	0	6
TAP	55	192	5
STR	56	0	4
SI_	56	0	4	96	312	7
BRK	58	0	0
TAP	58	192	0
TAP	59	0	1
TAP	59	192	1
TAP	60	0	2
TAP	61	0	3
TAP	62	0	4
TAP	62	192	4
TAP	63	0	5
TAP	63	192	5
HLD	64	0	6	384
TAP	66	0	7
TAP	66	192	7
TAP	67	0	6
TAP	67	192	6
TAP	68	0	5
TAP	69	0	4
TAP	70	0	3
TAP	70	192	3
TAP	71	0	2
TAP	71	192	2
STR	72	0	2
SI_	72	0	2	96	312	5
STR	74	0	0
SI_	74	0	0	96	312	3
HLD	75	192	4	168
HLD	75	192	5	168
STR	77	0	4
SI_	77	0	4	96	312	7
HLD	79	192	0	168
HLD	79	192	1	168
STR	81	0	6
SI_	81	0	6	96	312	1
HLD	83	192	2	168
HLD	83	192	3	168
STR	85	0	6
SI_	85	0	6	96	312	1
BRK	88	0	3
TAP	88	192	3
TAP	89	0	2
TAP	89	192	2
TAP	90	0	1
TAP	91	0	0
TAP	92	0	7
TAP	92	192	7
TAP	93	0	6
TAP	93	192	6
HLD	94	0	5	384
TAP	96	0	4
TAP	96	192	4
TAP	97	0	5
TAP	97	192	5
TAP	98	0	6
TAP	99	0	7
TAP	100	0	0
TAP	100	192	0
TAP	101	0	1
TAP	102	0	2
TAP	103	0	2
TAP	103	0	3
STR	104	0	4
SI_	104	0	4	96	312	7
TAP	106	0	0
TAP	106	192	1
TAP	107	0	2
TAP	108	0	2
TAP	108	192	3
TAP	109	0	4
TAP	110	0	4
TAP	110	192	5
TAP	111	0	6
TAP	112	0	6
TAP	112	192	7
TAP	113	0	0
TAP	114	0	7
TAP	114	192	6
TAP	115	0	5
TAP	116	0	4
TAP	116	192	3
HLD	117	0	3	192
HLD	118	0	2	192
HLD	119	0	0	384
HLD	119	0	1	384
HLD	121	0	6	384
HLD	121	0	7	384
BRK	122	336	0
BRK	122	336	7

T_REC_TAP	106
T_REC_BRK	4
T_REC_XTP	0
T_REC_HLD	21
T_REC_XHO	0
T_REC_STR	8
T_REC_BST	0
T_REC_XST	0
T_REC_TTP	0
T_REC_THO	0
T_REC_SLD	8
T_REC_ALL	147
T_NUM_TAP	114
T_NUM_BRK	4
T_NUM_HLD	21
T_NUM_SLD	8
T_NUM_ALL	147
T_JUDGE_TAP	118
T_JUDGE_HLD	58
T_JUDGE_SLD	8
T_JUDGE_ALL	184
TTM_EACHPAIRS	11
TTM_SCR_TAP	57000
TTM_SCR_BRK	10400
TTM_SCR_HLD	21000
TTM_SCR_SLD	12000
TTM_SCR_ALL	100400
TTM_SCR_S	97000
TTM_SCR_SS	100000
TTM_RAT_ACV	10040

