VERSION	0.00.00	1.03.00
FES_MODE	0
BPM_DEF	148.000	148.000	148.000	148.000
MET_DEF	4	4
RESOLUTION	384
CLK_DEF	384
COMPATIBLE_CODE	MA2

BPM	0	0	148.000
MET	0	0	4	4

TAP	1	0	0
TAP	1	24	1
TAP	1	48	2
TAP	1	72	3
TAP	1	96	4
TAP	1	120	5
TAP	1	144	6
TAP	1	168	7
TAP	1	192	0
TAP	1	216	1
TAP	1	240	2
TAP	1	264	3
TAP	1	288	4
TAP	1	312	5
TAP	1	336	6
TAP	1	360	7
TAP	2	0	0
TAP	2	16	1
TAP	2	32	2
TAP	2	48	3
TAP	2	64	4
TAP	2	80	5
TAP	2	96	6
TAP	2	112	7
TAP	2	128	0
TAP	2	144	1
TAP	2	160	2
TAP	2	176	3
TAP	2	192	4
TAP	2	208	5
TAP	2	224	6
TAP	2	240	7
TAP	2	256	0
TAP	2	272	1
TAP	2	288	2
TAP	2	304	3
TAP	2	320	4
TAP	2	336	5
TAP	2	352	6
TAP	2	368	7
TAP	3	0	0
TAP	3	12	1
TAP	3	24	2
TAP	3	36	3
TAP	3	48	4
TAP	3	60	5
TAP	3	72	6
TAP	3	84	7
TAP	3	96	0
TAP	3	108	1
TAP	3	120	2
TAP	3	132	3
TAP	3	144	4
TAP	3	156	5
TAP	3	168	6
TAP	3	180	7
TAP	3	192	0
TAP	3	204	1
TAP	3	216	2
TAP	3	228	3
TAP	3	240	4
TAP	3	252	5
TAP	3	264	6
TAP	3	276	7
BRK	3	288	0
TAP	6	144	0
TAP	6	144	7
TAP	6	168	0
TAP	6	168	7
TAP	6	192	0
TAP	6	192	7
TAP	6	240	1
TAP	6	288	6
TAP	6	336	3
TAP	6	360	4
STR	7	0	3
SI_	7	0	3	96	192	7
STR	7	192	5
SI_	7	192	5	96	192	0
STR	8	0	2
SI_	8	0	2	96	192	7
BRK	8	288	0
STR	9	0	4
SI_	9	0	4	96	192	0
STR	9	192	2
SI_	9	192	2	96	192	7
STR	10	0	5
SI_	10	0	5	96	192	0
BRK	10	288	7
STR	11	0	3
SI_	11	0	3	96	192	7
STR	11	192	5
SI_	11	192	5	96	192	0
STR	12	0	2
SI_	12	0	2	96	48	7
STR	12	96	4
SI_	12	96	4	96	48	0
STR	12	192	3
SI_	12	192	3	96	48	7
BRK	12	288	0
STR	13	0	4
SI_	13	0	4	96	192	0
STR	13	192	2
SI_	13	192	2	96	192	7
STR	14	0	5
SI_	14	0	5	96	48	0
STR	14	96	3
SI_	14	96	3	96	48	7
STR	14	192	4
SI_	14	192	4	96	48	0
BRK	14	288	7
STR	15	0	0
SCL	15	0	0	96	144	5
STR	15	96	6
SCL	15	96	6	96	144	3
STR	15	192	4
SCL	15	192	4	96	144	1
STR	15	288	2
SCL	15	288	2	96	144	7
STR	16	0	0
SCL	16	0	0	96	144	5
STR	16	96	6
SCL	16	96	6	96	144	3
TAP	16	192	4
BRK	16	288	2
STR	17	0	7
SCR	17	0	7	96	144	2
STR	17	96	1
SCR	17	96	1	96	144	4
STR	17	192	3
SCR	17	192	3	96	144	6
STR	17	288	5
SCR	17	288	5	96	144	0
STR	18	0	7
SCR	18	0	7	96	144	2
STR	18	96	1
SCR	18	96	1	96	144	4
TAP	18	192	3
BRK	18	288	5
STR	19	0	0
SCL	19	0	0	96	96	5
STR	19	96	5
SCL	19	96	5	96	96	2
STR	19	192	2
SCL	19	192	2	96	96	7
STR	19	288	7
SCL	19	288	7	96	96	4
STR	20	0	4
SCL	20	0	4	96	96	1
STR	20	96	1
SCL	20	96	1	96	96	6
TAP	20	192	6
BRK	20	288	3
STR	21	0	7
SCR	21	0	7	96	96	2
STR	21	96	2
SCR	21	96	2	96	96	5
STR	21	192	5
SCR	21	192	5	96	96	0
STR	21	288	0
SCR	21	288	0	96	96	3
STR	22	0	3
SCR	22	0	3	96	96	6
STR	22	96	6
SCR	22	96	6	96	96	1
TAP	22	192	1
BRK	22	288	4
TAP	23	0	7
TAP	23	48	0
TAP	23	96	1
TAP	23	144	2
TAP	23	192	3
TAP	23	240	5
TAP	23	264	4
TAP	23	312	4
TAP	23	360	2
TAP	24	0	3
TAP	24	48	7
TAP	24	96	6
TAP	24	144	5
STR	24	192	4
SCL	24	192	4	96	48	1
BRK	24	288	6
TAP	25	0	0
TAP	25	48	7
TAP	25	96	6
TAP	25	144	5
TAP	25	192	4
TAP	25	240	2
TAP	25	264	3
TAP	25	312	3
TAP	25	360	5
TAP	26	0	4
TAP	26	48	0
TAP	26	96	1
TAP	26	144	2
STR	26	192	3
SCR	26	192	3	96	48	6
BRK	26	288	1
TAP	27	0	0
TAP	27	0	7
TAP	27	48	6
TAP	27	96	5
TAP	27	144	4
TAP	27	192	3
TAP	27	240	5
TAP	27	264	4
TAP	27	312	2
TAP	27	360	2
TAP	28	0	3
TAP	28	48	1
TAP	28	96	2
TAP	28	144	3
STR	28	192	4
SCL	28	192	4	96	48	1
TAP	28	240	4
BRK	28	288	6
TAP	29	0	0
TAP	29	0	7
TAP	29	48	1
TAP	29	96	2
TAP	29	144	3
TAP	29	192	4
TAP	29	240	2
TAP	29	264	3
TAP	29	312	5
TAP	29	360	5
TAP	30	0	4
TAP	30	48	6
TAP	30	96	5
TAP	30	144	4
STR	30	192	3
SCR	30	192	3	96	48	6
TAP	30	240	3
BRK	30	288	1
HLD	31	0	7	96
TAP	31	96	0
TAP	31	128	7
TAP	31	160	1
TAP	31	192	6
TAP	31	224	2
TAP	31	256	5
TAP	31	288	3
TAP	31	320	4
TAP	31	352	2
STR	32	0	5
SI_	32	0	5	96	48	1
TAP	32	192	0
TAP	32	192	5
TAP	32	240	3
TAP	32	240	6
TAP	32	288	1
TAP	32	288	4
TAP	32	336	2
TAP	32	336	7
HLD	33	0	0	96
TAP	33	0	5
TAP	33	96	7
TAP	33	128	0
TAP	33	160	6
TAP	33	192	1
TAP	33	224	5
TAP	33	256	2
TAP	33	288	4
TAP	33	320	3
TAP	33	352	5
STR	34	0	2
SI_	34	0	2	96	48	6
TAP	34	192	0
TAP	34	240	0
TAP	34	288	6
TAP	34	336	6
TAP	34	360	6
HLD	35	0	7	96
TAP	35	96	6
TAP	35	128	7
TAP	35	160	5
TAP	35	192	0
TAP	35	224	4
TAP	35	256	1
TAP	35	288	3
TAP	35	320	2
TAP	35	352	4
STR	36	0	1
SI_	36	0	1	96	48	5
TAP	36	192	7
TAP	36	240	7
TAP	36	288	1
TAP	36	336	1
TAP	36	360	1
HLD	37	0	0	96
TAP	37	96	1
TAP	37	128	0
TAP	37	160	2
TAP	37	192	7
TAP	37	224	3
TAP	37	256	6
TAP	37	288	4
TAP	37	320	5
TAP	37	352	4
TAP	38	144	3
TAP	38	144	4
TAP	38	168	3
TAP	38	168	4
TAP	38	192	3
TAP	38	192	4
TAP	38	240	2
TAP	38	288	5
TAP	38	336	1
TAP	38	360	1
STR	39	0	6
SCR	39	0	6	96	48	1
STR	39	96	2
SCR	39	96	2	96	48	5
STR	39	192	6
SI_	39	192	6	96	48	2
BRK	39	288	1
STR	40	0	5
SCL	40	0	5	96	48	2
STR	40	96	1
SCL	40	96	1	96	48	6
STR	40	192	2
SI_	40	192	2	96	48	6
BRK	40	288	5
STR	41	0	6
SCR	41	0	6	96	48	1
STR	41	96	2
SI_	41	96	2	96	48	6
STR	41	192	5
SCL	41	192	5	96	48	2
BRK	41	288	1
STR	42	0	2
SCR	42	0	2	96	48	5
STR	42	96	6
SI_	42	96	6	96	48	2
STR	42	192	1
SCL	42	192	1	96	48	6
BRK	42	288	5
STR	43	0	1
SCL	43	0	1	96	48	6
STR	43	0	2
SCR	43	0	2	96	48	5
STR	43	192	2
SI_	43	192	2	96	48	6
BRK	43	288	5
STR	44	0	5
SCL	44	0	5	96	48	2
STR	44	0	6
SCR	44	0	6	96	48	1
STR	44	192	6
SI_	44	192	6	96	48	2
BRK	44	288	1
STR	45	0	2
SCR	45	0	2	96	48	5
STR	45	0	6
SCR	45	0	6	96	48	1
STR	45	192	6
SI_	45	192	6	96	48	2
BRK	45	288	1
STR	46	0	5
SCL	46	0	5	96	96	2
STR	46	96	2
SI_	46	96	2	96	96	6
STR	46	192	6
SCR	46	192	6	96	96	1
STR	46	288	4
SI_	46	288	4	96	864	0
BRK	47	288	7

T_REC_TAP	199
T_REC_BRK	21
T_REC_XTP	0
T_REC_HLD	4
T_REC_XHO	0
T_REC_STR	72
T_REC_BST	0
T_REC_XST	0
T_REC_TTP	0
T_REC_THO	0
T_REC_SLD	72
T_REC_ALL	368
T_NUM_TAP	271
T_NUM_BRK	21
T_NUM_HLD	4
T_NUM_SLD	72
T_NUM_ALL	368
T_JUDGE_TAP	292
T_JUDGE_HLD	8
T_JUDGE_SLD	72
T_JUDGE_ALL	372
TTM_EACHPAIRS	16
TTM_SCR_TAP	135500
TTM_SCR_BRK	54600
TTM_SCR_HLD	4000
TTM_SCR_SLD	108000
TTM_SCR_ALL	302100
TTM_SCR_S	291000
TTM_SCR_SS	300000
TTM_RAT_ACV	10070

