VERSION	0.00.00	1.03.00
FES_MODE	0
BPM_DEF	148.000	148.000	148.000	148.000
MET_DEF	4	4
RESOLUTION	384
CLK_DEF	384
COMPATIBLE_CODE	MA2

BPM	0	0	148.000
MET	0	0	4	4

STR	1	0	3
SI_	1	0	3	96	192	6
STR	2	0	4
SI_	2	0	4	96	192	1
STR	3	0	4
SI_	3	0	4	96	192	0
BRK	4	0	7
HLD	5	96	1	96
HLD	5	192	0	96
HLD	5	288	7	96
TAP	7	0	0
TAP	7	96	2
TAP	7	192	0
TAP	7	288	6
TAP	8	0	0
TAP	8	96	4
HLD	8	192	0	96
TAP	8	288	1
TAP	8	336	2
TAP	9	0	2
TAP	9	96	4
TAP	9	192	2
TAP	9	288	0
TAP	10	0	2
TAP	10	96	6
HLD	10	192	2	96
TAP	10	288	4
TAP	10	336	3
TAP	11	0	4
TAP	11	96	2
TAP	11	192	6
TAP	11	288	0
HLD	12	0	7	96
HLD	12	96	2	96
TAP	12	192	5
TAP	12	288	4
TAP	12	336	4
HLD	13	0	4	96
TAP	13	96	5
HLD	13	192	3	96
TAP	13	288	2
STR	14	0	0
SI_	14	0	0	96	48	4
STR	14	96	7
SI_	14	96	7	96	48	2
STR	14	192	1
SI_	14	192	1	96	48	5
TAP	15	0	6
TAP	15	72	6
TAP	15	144	6
TAP	15	192	0
TAP	15	264	0
TAP	15	336	0
TAP	16	0	5
TAP	16	72	5
TAP	16	144	5
TAP	16	192	4
TAP	16	192	5
TAP	16	288	4
TAP	16	288	5
TAP	17	0	2
TAP	17	72	2
TAP	17	144	2
TAP	17	192	4
TAP	17	264	4
TAP	17	336	4
TAP	18	0	0
TAP	18	72	0
TAP	18	144	0
TAP	18	192	6
TAP	18	240	6
BRK	18	288	6
TAP	19	0	0
HLD	19	72	0	72
TAP	19	144	1
TAP	19	192	7
HLD	19	264	7	72
TAP	19	336	6
TAP	20	0	0
TAP	20	72	1
TAP	20	144	2
TAP	20	192	4
TAP	20	192	5
TAP	20	288	2
TAP	20	288	3
HLD	21	0	7	72
HLD	21	72	6	72
TAP	21	144	5
HLD	21	192	0	72
HLD	21	264	1	72
TAP	21	336	2
HLD	22	0	4	72
HLD	22	72	3	72
TAP	22	144	4
TAP	22	192	3
TAP	22	240	5
TAP	22	288	2
TAP	22	336	6
HLD	23	0	1	96
TAP	23	96	7
TAP	23	144	7
HLD	23	192	7	96
TAP	23	288	0
TAP	23	336	0
HLD	24	0	0	96
TAP	24	96	6
TAP	24	144	6
TAP	24	192	1
TAP	24	240	0
TAP	24	288	1
HLD	25	0	2	96
TAP	25	96	3
TAP	25	144	3
HLD	25	192	4	96
TAP	25	288	3
TAP	25	336	3
HLD	26	0	2	96
TAP	26	96	5
TAP	26	144	5
TAP	26	192	3
TAP	26	240	4
TAP	26	288	3
TAP	26	336	4
STR	27	0	1
SI_	27	0	1	96	48	5
TAP	27	96	7
TAP	27	144	7
STR	27	192	6
SI_	27	192	6	96	48	2
TAP	27	288	1
TAP	27	336	1
STR	28	0	0
SI_	28	0	0	96	48	4
TAP	28	96	5
TAP	28	144	5
TAP	28	192	6
TAP	28	240	6
TAP	28	288	6
STR	29	0	4
SI_	29	0	4	96	48	7
TAP	29	96	2
TAP	29	144	2
STR	29	192	3
SI_	29	192	3	96	48	0
TAP	29	288	6
TAP	29	336	6
STR	30	0	7
SI_	30	0	7	96	48	3
TAP	30	192	1
TAP	30	264	1
TAP	30	336	1
HLD	31	0	3	96
TAP	31	96	2
HLD	31	144	4	192
HLD	31	240	5	96
TAP	32	192	1
TAP	32	240	0
TAP	32	288	2
TAP	32	288	7
HLD	33	0	0	96
TAP	33	96	1
HLD	33	144	7	192
HLD	33	240	6	96
TAP	34	192	2
TAP	34	240	3
TAP	34	288	1
TAP	34	288	4
HLD	35	0	5	96
TAP	35	96	6
HLD	35	144	4	96
STR	35	240	3
SI_	35	240	3	96	48	7
TAP	36	192	7
TAP	36	240	0
TAP	36	288	1
TAP	36	288	6
HLD	37	0	1	96
TAP	37	96	2
HLD	37	144	0	96
STR	37	240	7
SI_	37	240	7	96	48	3
TAP	38	192	1
TAP	38	192	6
BRK	38	288	0
BRK	38	288	7
TAP	39	0	7
TAP	39	72	1
TAP	39	96	0
TAP	39	144	2
TAP	39	192	0
TAP	39	264	6
TAP	39	288	7
TAP	39	336	5
TAP	40	0	3
TAP	40	72	6
TAP	40	96	5
TAP	40	144	7
TAP	40	192	0
TAP	40	240	1
TAP	40	288	2
TAP	40	288	3
TAP	41	0	0
TAP	41	72	2
TAP	41	96	4
TAP	41	144	3
TAP	41	192	7
TAP	41	264	5
TAP	41	288	3
TAP	41	336	4
TAP	42	0	1
TAP	42	72	7
TAP	42	96	0
TAP	42	144	6
TAP	42	192	2
TAP	42	240	3
BRK	42	288	4
BRK	42	288	5
TAP	43	0	1
TAP	43	72	1
TAP	43	96	0
TAP	43	144	2
TAP	43	144	7
TAP	43	192	6
TAP	43	264	6
TAP	43	288	7
TAP	43	336	0
TAP	43	336	5
TAP	44	0	1
TAP	44	72	3
TAP	44	96	2
TAP	44	144	1
TAP	44	144	4
TAP	44	192	5
TAP	44	240	4
TAP	44	288	3
TAP	44	288	6
HLD	45	0	1	72
TAP	45	72	0
TAP	45	96	1
TAP	45	144	7
HLD	45	192	6	72
TAP	45	264	7
TAP	45	288	6
TAP	45	336	0
HLD	46	0	1	72
TAP	46	72	0
TAP	46	96	1
TAP	46	144	6
BRK	46	192	6
BRK	46	192	7
BRK	46	240	0
BRK	46	240	5
BRK	46	288	6
BRK	46	288	7
HLD	47	0	0	672
BRK	48	288	7

T_REC_TAP	178
T_REC_BRK	13
T_REC_XTP	0
T_REC_HLD	37
T_REC_XHO	0
T_REC_STR	14
T_REC_BST	0
T_REC_XST	0
T_REC_TTP	0
T_REC_THO	0
T_REC_SLD	14
T_REC_ALL	256
T_NUM_TAP	192
T_NUM_BRK	13
T_NUM_HLD	37
T_NUM_SLD	14
T_NUM_ALL	256
T_JUDGE_TAP	205
T_JUDGE_HLD	90
T_JUDGE_SLD	14
T_JUDGE_ALL	309
TTM_EACHPAIRS	18
TTM_SCR_TAP	96000
TTM_SCR_BRK	33800
TTM_SCR_HLD	37000
TTM_SCR_SLD	21000
TTM_SCR_ALL	187800
TTM_SCR_S	180950
TTM_SCR_SS	186500
TTM_RAT_ACV	10069

