VERSION	0.00.00	1.03.00
FES_MODE	0
BPM_DEF	148.000	148.000	148.000	148.000
MET_DEF	4	4
RESOLUTION	384
CLK_DEF	384
COMPATIBLE_CODE	MA2

BPM	0	0	148.000
MET	0	0	4	4

HLD	1	0	1	384
HLD	2	0	6	384
TAP	3	0	0
BRK	4	0	0
BRK	4	0	7
TAP	5	0	0
TAP	5	96	0
TAP	5	192	0
TAP	5	288	0
TAP	7	0	7
TAP	7	96	7
TAP	7	192	5
TAP	7	288	5
TAP	8	0	6
TAP	8	96	6
TAP	8	192	4
TAP	8	288	4
TAP	9	0	0
TAP	9	96	0
TAP	9	192	2
TAP	9	288	2
TAP	10	0	1
TAP	10	96	1
TAP	10	192	3
TAP	10	192	4
TAP	11	0	1
TAP	11	96	1
TAP	11	192	4
TAP	11	288	4
TAP	12	0	3
TAP	12	96	3
TAP	12	192	6
TAP	12	288	6
TAP	13	0	0
TAP	13	192	7
TAP	14	0	1
TAP	14	96	0
TAP	14	192	6
BRK	14	288	7
TAP	15	0	2
TAP	15	96	3
TAP	15	192	2
TAP	15	288	3
TAP	16	0	5
TAP	16	96	4
TAP	16	192	5
TAP	16	288	4
TAP	17	0	0
TAP	17	96	7
TAP	17	192	1
TAP	17	288	6
TAP	18	0	1
TAP	18	0	6
TAP	18	96	1
TAP	18	96	6
HLD	18	192	0	96
HLD	18	192	7	96
TAP	19	0	0
TAP	19	96	2
HLD	19	192	3	96
TAP	20	0	7
TAP	20	96	5
HLD	20	192	4	96
TAP	21	0	1
TAP	21	96	0
HLD	21	192	7	96
TAP	22	0	5
TAP	22	96	4
HLD	22	192	3	96
STR	23	0	0
SI_	23	0	0	96	96	3
STR	24	0	4
SI_	24	0	4	96	96	7
STR	25	0	3
SI_	25	0	3	96	96	0
STR	26	0	7
SI_	26	0	7	96	96	4
TAP	27	0	0
TAP	27	96	1
TAP	27	192	2
TAP	27	288	3
TAP	28	0	4
TAP	28	96	5
TAP	28	192	6
TAP	28	288	7
TAP	29	0	0
TAP	29	96	1
TAP	29	192	2
TAP	29	288	3
TAP	30	0	4
TAP	30	96	5
TAP	30	192	6
TAP	30	288	7
STR	31	0	0
SCL	31	0	0	96	192	5
STR	33	0	7
SCR	33	0	7	96	192	2
BRK	34	192	0
BRK	34	288	7
STR	35	0	0
SI_	35	0	0	96	96	4
STR	35	192	7
SI_	35	192	7	96	96	3
TAP	36	192	3
TAP	36	288	4
STR	37	0	1
SI_	37	0	1	96	96	6
STR	37	192	5
SI_	37	192	5	96	96	2
TAP	38	192	1
TAP	38	192	6
BRK	38	288	0
BRK	38	288	7
TAP	39	0	1
TAP	39	48	1
TAP	39	96	1
TAP	39	192	7
TAP	39	240	7
TAP	39	288	7
TAP	40	0	0
TAP	40	48	0
TAP	40	96	0
TAP	40	192	6
TAP	40	240	6
TAP	40	288	6
TAP	41	0	2
TAP	41	48	2
TAP	41	96	2
TAP	41	192	5
TAP	41	240	5
TAP	41	288	5
TAP	42	0	2
TAP	42	0	5
TAP	42	96	2
TAP	42	96	5
TAP	42	192	3
TAP	42	192	4
BRK	42	288	3
BRK	42	288	4
TAP	43	0	3
TAP	43	48	4
TAP	43	96	3
TAP	43	192	5
TAP	43	240	3
TAP	43	288	5
TAP	44	0	2
TAP	44	48	4
TAP	44	96	2
TAP	44	192	4
TAP	44	240	3
TAP	44	288	4
TAP	45	0	0
TAP	45	48	7
TAP	45	96	0
TAP	45	192	6
TAP	45	240	0
TAP	45	288	6
TAP	46	0	1
TAP	46	48	7
TAP	46	96	1
TAP	46	192	0
TAP	46	192	7
TAP	46	288	0
TAP	46	288	7
HLD	47	0	1	864
HLD	47	0	6	864

T_REC_TAP	127
T_REC_BRK	9
T_REC_XTP	0
T_REC_HLD	10
T_REC_XHO	0
T_REC_STR	10
T_REC_BST	0
T_REC_XST	0
T_REC_TTP	0
T_REC_THO	0
T_REC_SLD	10
T_REC_ALL	166
T_NUM_TAP	137
T_NUM_BRK	9
T_NUM_HLD	10
T_NUM_SLD	10
T_NUM_ALL	166
T_JUDGE_TAP	146
T_JUDGE_HLD	64
T_JUDGE_SLD	10
T_JUDGE_ALL	220
TTM_EACHPAIRS	14
TTM_SCR_TAP	68500
TTM_SCR_BRK	23400
TTM_SCR_HLD	10000
TTM_SCR_SLD	15000
TTM_SCR_ALL	116900
TTM_SCR_S	112550
TTM_SCR_SS	116000
TTM_RAT_ACV	10077

