VERSION	0.00.00	1.03.00
FES_MODE	0
BPM_DEF	185.000	185.000	185.000	185.000
MET_DEF	4	4
RESOLUTION	384
CLK_DEF	384
COMPATIBLE_CODE	MA2

BPM	0	0	185.000
MET	0	0	4	4

TAP	2	0	6
TAP	2	96	6
TAP	2	192	6
BRK	2	240	2
BRK	2	240	5
BRK	2	264	1
BRK	2	264	6
BRK	2	288	0
BRK	2	288	7
TAP	3	0	7
TAP	3	48	1
TAP	3	96	4
TAP	3	144	6
TAP	3	192	1
TAP	3	192	7
TAP	3	240	0
TAP	3	288	2
TAP	3	336	4
TAP	3	336	5
TAP	4	48	1
TAP	4	96	7
TAP	4	144	5
TAP	4	192	4
TAP	4	240	7
TAP	4	288	2
TAP	4	336	1
TAP	4	336	4
TAP	5	0	3
TAP	5	48	7
TAP	5	96	2
TAP	5	144	4
TAP	5	192	6
TAP	5	240	3
TAP	5	288	7
TAP	5	336	6
TAP	5	336	7
TAP	6	48	0
TAP	6	96	1
TAP	6	96	4
TAP	6	144	7
TAP	6	192	4
TAP	6	192	6
TAP	6	240	0
TAP	6	240	5
TAP	6	288	2
TAP	6	312	4
TAP	6	336	1
TAP	6	360	4
TAP	7	0	0
TAP	7	48	6
TAP	7	96	3
TAP	7	144	1
TAP	7	192	0
TAP	7	192	5
TAP	7	240	7
TAP	7	288	4
TAP	7	336	2
TAP	7	336	3
TAP	8	48	5
TAP	8	96	4
TAP	8	96	6
TAP	8	144	3
TAP	8	192	2
TAP	8	240	0
TAP	8	288	5
TAP	8	336	3
TAP	8	336	6
TAP	9	0	4
TAP	9	48	0
TAP	9	96	5
TAP	9	144	3
TAP	9	192	1
TAP	9	240	4
TAP	9	288	0
BRK	9	336	0
BRK	9	336	1
TAP	10	48	7
BRK	10	96	3
BRK	10	96	6
TAP	10	144	0
BRK	10	192	1
BRK	10	192	3
BRK	10	240	2
BRK	10	240	7
TAP	10	288	5
TAP	10	312	4
TAP	10	336	5
TAP	10	360	4
BST	11	0	6
SCL	11	0	6	96	48	3
TAP	11	96	2
HLD	11	144	2	96
TAP	11	240	1
STR	11	288	1
SCL	11	288	1	96	48	6
STR	12	0	2
SI_	12	0	2	96	48	7
TAP	12	96	5
TAP	12	144	3
TAP	12	240	0
TAP	12	288	0
TAP	12	288	6
TAP	13	0	2
TAP	13	0	3
TAP	13	48	1
STR	13	96	1
SCR	13	96	1	96	48	4
TAP	13	192	5
TAP	13	240	5
TAP	13	288	5
TAP	13	336	5
STR	13	336	6
SCR	13	336	6	96	48	1
TAP	14	48	4
TAP	14	96	3
TAP	14	192	7
STR	14	240	3
SI_	14	240	3	96	48	7
TAP	14	240	6
STR	15	0	1
SCR	15	0	1	96	48	4
TAP	15	96	5
HLD	15	144	5	96
TAP	15	240	6
STR	15	288	6
SCR	15	288	6	96	48	1
STR	16	0	5
SI_	16	0	5	96	48	0
TAP	16	96	2
TAP	16	144	4
TAP	16	240	7
TAP	16	288	1
TAP	16	288	7
TAP	17	0	4
TAP	17	0	5
TAP	17	48	6
STR	17	96	6
SCL	17	96	6	96	48	3
TAP	17	192	2
TAP	17	240	2
TAP	17	288	2
STR	17	336	1
SCL	17	336	1	96	48	6
TAP	17	336	2
TAP	18	48	3
TAP	18	96	4
TAP	18	192	2
TAP	18	192	4
TAP	18	240	0
TAP	18	240	6
STR	19	0	0
SI_	19	0	0	96	48	4
TAP	19	0	1
TAP	19	48	7
TAP	19	96	6
TAP	19	144	5
TAP	19	192	3
STR	19	240	2
SI_	19	240	2	96	48	6
TAP	19	336	0
TAP	20	0	7
TAP	20	48	5
TAP	20	96	4
STR	20	144	3
SI_	20	144	3	96	48	7
TAP	20	240	0
TAP	20	288	0
TAP	21	0	0
TAP	21	0	7
TAP	21	48	0
TAP	21	48	7
TAP	21	96	3
TAP	21	96	4
TAP	21	144	0
TAP	21	144	7
TAP	21	192	3
TAP	21	192	4
TAP	21	240	0
STR	21	240	7
SI_	21	240	7	96	48	3
STR	21	336	5
SI_	21	336	5	96	48	1
STR	22	48	2
SI_	22	48	2	96	48	6
TAP	22	96	2
STR	22	144	0
SI_	22	144	0	96	48	4
TAP	22	192	0
TAP	22	240	7
TAP	22	288	7
TAP	23	0	3
TAP	23	0	5
TAP	23	48	3
TAP	23	48	5
TAP	23	96	1
TAP	23	96	3
TAP	23	192	0
TAP	23	192	5
TAP	23	240	2
TAP	23	240	7
TAP	23	336	1
TAP	23	336	4
TAP	24	0	0
TAP	24	0	3
TAP	24	48	2
TAP	24	48	7
TAP	24	96	1
TAP	24	96	6
TAP	24	144	0
TAP	24	144	5
TAP	24	240	1
TAP	24	240	3
TAP	24	288	0
TAP	24	288	2
TAP	24	336	1
TAP	24	336	7
TAP	25	0	0
TAP	25	0	6
TAP	25	48	5
TAP	25	48	7
TAP	25	144	1
TAP	25	144	2
TAP	25	192	0
TAP	25	192	1
TAP	25	240	0
TAP	25	240	7
TAP	25	288	6
TAP	25	288	7
TAP	25	336	5
TAP	25	336	6
BRK	26	48	2
BRK	26	96	3
BRK	26	144	4
BRK	26	192	5
BRK	26	240	6
BRK	26	288	7
TAP	27	0	0
HLD	27	0	6	144
TAP	27	96	4
TAP	27	120	3
STR	27	144	2
SCR	27	144	2	96	144	5
TAP	27	240	4
TAP	27	288	4
HLD	28	0	6	144
TAP	28	96	0
TAP	28	120	1
STR	28	144	2
SCL	28	144	2	96	144	7
TAP	28	240	0
TAP	28	288	0
HLD	29	0	6	144
TAP	29	96	5
TAP	29	120	4
STR	29	144	3
SCL	29	144	3	96	144	0
TAP	29	240	4
TAP	29	288	4
TAP	29	336	4
TAP	30	0	4
TAP	30	48	1
TAP	30	48	4
TAP	30	96	2
TAP	30	96	5
STR	30	144	3
SI_	30	144	3	96	48	0
TAP	30	144	6
TAP	30	240	7
TAP	30	264	6
TAP	30	288	5
HLD	31	0	1	144
TAP	31	0	4
BRK	31	96	3
TAP	31	120	4
STR	31	144	5
SCL	31	144	5	96	144	2
TAP	31	240	3
BRK	31	288	3
HLD	32	0	1	144
BRK	32	96	7
TAP	32	120	6
STR	32	144	5
SCR	32	144	5	96	144	0
TAP	32	240	7
BRK	32	288	7
HLD	33	0	1	144
BRK	33	96	2
TAP	33	120	3
STR	33	144	4
SI_	33	144	4	96	48	7
BRK	33	240	0
BRK	33	288	0
BRK	33	336	0
TAP	34	0	1
BRK	34	0	4
TAP	34	48	2
TAP	34	96	1
BRK	34	96	6
TAP	34	144	2
BRK	34	192	0
TAP	34	192	1
TAP	34	240	2
TAP	34	288	1
BRK	34	288	6
TAP	34	336	2
BST	35	0	0
SCR	35	0	0	96	336	3
BST	35	0	4
SCR	35	0	4	96	336	7
TAP	36	192	5
TAP	36	224	4
TAP	36	256	5
TAP	36	288	2
TAP	36	320	3
TAP	36	352	2
STR	37	0	3
SCL	37	0	3	96	336	0
BST	37	0	7
SCL	37	0	7	96	336	4
TAP	38	192	1
TAP	38	224	3
TAP	38	256	2
TAP	38	288	6
TAP	38	320	4
TAP	38	352	5
BST	39	0	0
SCR	39	0	0	96	336	3
STR	39	0	4
SCR	39	0	4	96	336	7
TAP	40	192	6
TAP	40	224	4
TAP	40	256	5
TAP	40	288	1
TAP	40	320	3
TAP	40	352	2
TAP	41	0	3
TAP	41	0	4
TAP	41	96	0
TAP	41	96	1
TAP	41	144	0
TAP	41	144	1
TAP	41	192	2
TAP	41	192	3
TAP	41	240	2
TAP	41	240	3
TAP	41	288	4
TAP	41	288	5
TAP	41	336	4
TAP	41	336	5
BRK	42	0	6
BRK	42	0	7
BRK	42	48	4
BRK	42	48	5
BRK	42	96	2
BRK	42	96	3
BRK	42	144	0
BRK	42	144	1
BRK	42	192	6
BRK	42	192	7
TAP	42	288	3
STR	42	288	4
SI_	42	288	4	96	48	0
BRK	43	0	7
STR	43	48	7
SCL	43	48	7	96	48	4
TAP	43	144	2
STR	43	192	2
SI_	43	192	2	96	48	5
TAP	43	288	0
STR	43	336	0
SCR	43	336	0	96	48	3
TAP	44	48	0
STR	44	96	0
SI_	44	96	0	96	48	4
TAP	44	192	7
BRK	44	240	7
STR	44	288	6
SI_	44	288	6	96	48	2
TAP	45	0	0
STR	45	48	0
SCR	45	48	0	96	48	3
TAP	45	144	5
STR	45	192	5
SI_	45	192	5	96	48	2
TAP	45	288	7
STR	45	336	7
SCL	45	336	7	96	48	4
TAP	46	48	7
STR	46	96	7
SI_	46	96	7	96	48	3
BRK	46	192	0
BRK	46	240	0
TAP	47	0	1
TAP	47	48	7
TAP	47	96	5
TAP	47	144	3
TAP	47	192	0
HLD	47	240	0	96
TAP	47	336	1
TAP	48	0	1
TAP	48	48	3
TAP	48	96	5
TAP	48	144	1
TAP	48	192	7
HLD	48	240	6	96
TAP	48	336	7
TAP	49	0	0
TAP	49	0	5
TAP	49	48	1
TAP	49	96	2
TAP	49	96	4
TAP	49	144	7
TAP	49	192	3
TAP	49	192	6
STR	49	240	5
SCR	49	240	5	96	48	0
STR	49	288	0
SCR	49	288	0	96	48	3
BRK	49	336	5
TAP	50	192	2
TAP	50	192	5
TAP	50	288	3
STR	50	288	4
SI_	50	288	4	96	48	7
BRK	51	0	2
STR	51	48	1
SCR	51	48	1	96	48	4
TAP	51	144	0
STR	51	192	7
SI_	51	192	7	96	48	3
TAP	51	288	6
STR	51	336	5
SCR	51	336	5	96	48	0
TAP	52	48	5
STR	52	96	5
SI_	52	96	5	96	48	1
STR	52	192	0
SI_	52	192	0	96	48	3
BRK	52	240	0
STR	52	288	0
SI_	52	288	0	96	48	4
TAP	52	288	7
TAP	53	0	6
STR	53	48	5
SCR	53	48	5	96	48	0
TAP	53	144	4
STR	53	192	3
SI_	53	192	3	96	48	7
TAP	53	288	2
STR	53	336	1
SCR	53	336	1	96	48	4
TAP	54	48	1
STR	54	96	1
SI_	54	96	1	96	48	5
BRK	54	192	7
BRK	54	240	7
TAP	55	0	0
TAP	55	48	1
TAP	55	96	0
TAP	55	144	6
TAP	55	192	4
HLD	55	240	2	96
TAP	55	336	1
TAP	56	0	7
TAP	56	48	5
TAP	56	96	7
TAP	56	144	0
TAP	56	192	3
HLD	56	240	1	96
TAP	56	336	0
TAP	57	0	2
TAP	57	0	7
TAP	57	48	6
TAP	57	96	3
TAP	57	96	5
TAP	57	144	0
TAP	57	192	1
TAP	57	192	4
STR	57	240	2
SCL	57	240	2	96	48	7
STR	57	288	7
SCL	57	288	7	96	48	4
BRK	57	336	2
STR	58	192	0
SI_	58	192	0	96	48	4
TAP	58	192	7
TAP	58	288	5
BRK	59	0	3
HLD	59	0	4	96
HLD	59	96	2	144
BRK	59	144	1
HLD	59	240	0	144
BRK	59	288	7
HLD	60	0	6	144
BRK	60	48	5
TAP	60	144	4
TAP	60	192	2
BRK	60	192	3
STR	60	288	0
SI_	60	288	0	96	96	3
BRK	60	288	1
BST	61	0	3
SI_	61	0	3	96	96	7
STR	61	96	7
SI_	61	96	7	96	96	4
STR	61	192	4
SI_	61	192	4	96	96	0
STR	61	288	0
SCR	61	288	0	96	96	3
STR	62	0	3
SCR	62	0	3	96	48	6
HLD	62	96	7	168
TAP	62	192	0
TAP	62	216	1
TAP	62	240	2
TAP	62	264	3
TAP	62	288	0
TAP	62	288	4
TAP	62	312	1
TAP	62	312	5
TAP	62	336	2
TAP	62	336	6
TAP	62	360	3
TAP	62	360	7
BRK	63	0	0
BRK	63	0	4
TAP	63	96	2
TAP	63	96	3
TAP	63	144	0
TAP	63	144	6
TAP	63	240	4
TAP	63	240	5
TAP	63	288	1
TAP	63	288	7
TAP	64	0	2
TAP	64	0	3
BRK	64	48	0
HLD	64	48	6	144
TAP	64	192	0
TAP	64	216	5
TAP	64	240	1
TAP	64	264	4
STR	64	288	2
SI_	64	288	2	96	48	6
TAP	64	312	3
TAP	64	336	2
TAP	64	360	3
BRK	65	0	2
BRK	65	192	6
TAP	65	198	5
TAP	65	198	7
TAP	65	204	0
TAP	65	204	4
TAP	65	210	1
TAP	65	210	3
TAP	65	216	2
BST	66	0	0
SI_	66	0	0	96	48	5
BST	66	0	1
SI_	66	0	1	96	48	4
BRK	66	96	0
BRK	66	96	1
BRK	66	192	2
BRK	66	192	3
BRK	66	240	1
BRK	66	240	2
BRK	66	288	0
BRK	66	288	1
BRK	66	336	0
BRK	66	336	7
TAP	67	0	6
TAP	67	48	5
TAP	67	96	3
TAP	67	96	4
TAP	67	144	5
TAP	67	192	6
TAP	67	216	6
TAP	67	240	0
TAP	67	288	0
TAP	67	288	2
TAP	67	336	2
TAP	68	0	2
TAP	68	0	3
TAP	68	48	1
TAP	68	96	0
TAP	68	144	7
TAP	68	192	2
TAP	68	216	2
TAP	68	240	6
TAP	68	288	4
TAP	68	288	5
TAP	68	336	3
TAP	69	0	7
TAP	69	48	0
TAP	69	96	0
TAP	69	96	1
TAP	69	144	7
TAP	69	192	5
TAP	69	216	5
TAP	69	240	1
TAP	69	288	2
HLD	69	336	3	96
TAP	69	336	4
TAP	70	48	2
TAP	70	96	1
TAP	70	96	2
TAP	70	144	7
TAP	70	192	0
TAP	70	192	1
TAP	70	240	2
TAP	70	288	0
TAP	70	288	7
TAP	70	312	6
TAP	70	336	5
TAP	70	360	4
TAP	71	0	1
TAP	71	0	3
TAP	71	48	4
TAP	71	96	2
TAP	71	96	3
TAP	71	144	1
TAP	71	192	0
TAP	71	216	0
TAP	71	240	2
TAP	71	288	3
TAP	71	336	4
TAP	72	0	5
TAP	72	48	6
TAP	72	96	6
TAP	72	96	7
TAP	72	144	0
TAP	72	192	1
TAP	72	216	1
TAP	72	240	2
TAP	72	288	3
TAP	72	336	5
TAP	73	0	6
TAP	73	48	7
TAP	73	96	0
TAP	73	96	2
TAP	73	144	1
TAP	73	192	7
TAP	73	216	7
TAP	73	240	6
TAP	73	288	5
TAP	73	336	3
HLD	73	336	4	96
TAP	74	48	5
BRK	74	96	5
BRK	74	96	6
TAP	74	144	0
BRK	74	192	6
BRK	74	192	7
TAP	74	240	5
BRK	74	288	0
BRK	74	288	7
TAP	74	312	1
TAP	74	336	2
TAP	74	360	3
TAP	75	0	4
TAP	75	0	7
TAP	75	48	6
TAP	75	96	3
TAP	75	96	5
TAP	75	144	6
TAP	75	192	5
TAP	75	216	5
TAP	75	240	4
TAP	75	288	0
TAP	75	336	1
TAP	76	0	4
TAP	76	48	5
TAP	76	96	4
TAP	76	96	6
TAP	76	144	7
TAP	76	192	1
TAP	76	216	1
TAP	76	240	0
TAP	76	288	5
TAP	76	312	5
TAP	76	336	4
TAP	77	0	0
TAP	77	0	6
TAP	77	48	1
TAP	77	48	7
TAP	77	96	2
TAP	77	120	2
TAP	77	144	3
TAP	77	192	5
TAP	77	240	3
TAP	77	240	6
TAP	77	336	0
TAP	77	336	5
TAP	78	0	1
TAP	78	0	4
TAP	78	48	0
TAP	78	48	3
TAP	78	96	1
TAP	78	96	4
BRK	78	144	6
BRK	78	144	7
TAP	79	0	0
TAP	79	0	7
TAP	79	48	1
TAP	79	72	4
TAP	79	96	2
TAP	79	144	6
TAP	79	192	1
TAP	79	192	7
TAP	79	216	7
TAP	79	240	2
TAP	79	288	0
TAP	79	336	3
TAP	80	0	4
TAP	80	0	5
TAP	80	48	6
TAP	80	72	4
TAP	80	96	7
TAP	80	144	2
TAP	80	192	3
TAP	80	192	6
TAP	80	216	3
TAP	80	240	5
TAP	80	288	7
TAP	80	312	6
TAP	80	336	7
TAP	81	0	4
TAP	81	48	6
TAP	81	96	0
TAP	81	96	1
TAP	81	144	3
TAP	81	144	4
TAP	81	192	6
TAP	81	192	7
BRK	81	240	1
BRK	81	240	4
BRK	81	336	4
BRK	81	336	5
BRK	82	0	6
BRK	82	48	0
BRK	82	48	7
BRK	82	96	1
TAP	82	144	2
TAP	82	144	3
TAP	82	168	3
TAP	82	168	4
TAP	82	192	4
TAP	82	192	5
TAP	82	240	6
TAP	82	240	7
BRK	82	288	0
BRK	82	288	1

T_REC_TAP	509
T_REC_BRK	91
T_REC_XTP	0
T_REC_HLD	20
T_REC_XHO	0
T_REC_STR	58
T_REC_BST	8
T_REC_XST	0
T_REC_TTP	0
T_REC_THO	0
T_REC_SLD	66
T_REC_ALL	752
T_NUM_TAP	567
T_NUM_BRK	99
T_NUM_HLD	20
T_NUM_SLD	66
T_NUM_ALL	752
T_JUDGE_TAP	666
T_JUDGE_HLD	52
T_JUDGE_SLD	66
T_JUDGE_ALL	784
TTM_EACHPAIRS	155
TTM_SCR_TAP	283500
TTM_SCR_BRK	257400
TTM_SCR_HLD	20000
TTM_SCR_SLD	99000
TTM_SCR_ALL	659900
TTM_SCR_S	630500
TTM_SCR_SS	650000
TTM_RAT_ACV	10152

