VERSION	0.00.00	1.03.00
FES_MODE	0
BPM_DEF	185.000	185.000	185.000	185.000
MET_DEF	4	4
RESOLUTION	384
CLK_DEF	384
COMPATIBLE_CODE	MA2

BPM	0	0	185.000
MET	0	0	4	4

TAP	2	0	0
TAP	2	96	0
BRK	2	192	0
STR	2	288	2
SI_	2	288	2	96	48	7
TAP	3	0	6
TAP	3	48	5
TAP	3	96	3
TAP	3	96	4
TAP	3	192	6
TAP	3	240	7
TAP	3	288	0
TAP	3	288	1
TAP	4	0	7
TAP	4	48	6
TAP	4	96	4
TAP	4	96	5
TAP	4	192	2
TAP	4	240	3
TAP	4	288	4
TAP	4	288	5
TAP	5	0	6
TAP	5	48	5
TAP	5	96	3
TAP	5	96	4
TAP	5	192	7
TAP	5	240	0
TAP	5	288	1
TAP	5	288	2
HLD	5	336	3	96
TAP	6	48	4
TAP	6	96	5
TAP	6	96	6
TAP	6	144	0
TAP	6	192	6
TAP	6	192	7
TAP	6	240	5
TAP	6	288	0
TAP	6	288	7
TAP	6	336	1
TAP	7	0	7
TAP	7	48	6
TAP	7	96	4
TAP	7	96	5
TAP	7	144	3
TAP	7	192	2
TAP	7	240	1
TAP	7	288	0
TAP	7	288	7
TAP	7	336	5
TAP	8	0	5
TAP	8	48	3
TAP	8	96	2
TAP	8	96	3
TAP	8	144	4
TAP	8	192	6
TAP	8	240	0
TAP	8	288	1
TAP	8	288	2
TAP	8	336	0
TAP	9	0	7
TAP	9	48	6
TAP	9	96	4
TAP	9	96	5
TAP	9	144	3
TAP	9	192	2
TAP	9	240	1
TAP	9	288	0
TAP	9	288	7
HLD	9	336	6	96
TAP	10	48	5
BRK	10	96	0
BRK	10	96	7
TAP	10	144	1
BRK	10	192	0
BRK	10	192	7
TAP	10	240	6
BRK	10	288	0
BRK	10	288	7
TAP	10	336	1
STR	11	0	2
SI_	11	0	2	96	48	7
TAP	11	96	0
STR	11	144	0
SI_	11	144	0	96	48	4
TAP	11	240	7
TAP	11	288	5
TAP	11	336	3
STR	12	0	1
SCR	12	0	1	96	48	4
TAP	12	96	7
STR	12	144	0
SCL	12	144	0	96	48	5
TAP	12	240	2
TAP	12	288	1
TAP	12	336	0
STR	13	0	7
SI_	13	0	7	96	48	3
TAP	13	96	6
STR	13	144	6
SI_	13	144	6	96	48	2
TAP	13	240	3
TAP	13	288	4
HLD	13	336	5	96
TAP	14	48	6
TAP	14	96	6
TAP	14	144	7
TAP	14	192	7
TAP	14	240	0
TAP	14	288	0
TAP	14	336	1
STR	15	0	2
SI_	15	0	2	96	48	6
TAP	15	96	0
STR	15	144	0
SI_	15	144	0	96	48	4
TAP	15	240	5
TAP	15	288	3
TAP	15	336	1
STR	16	0	0
SI_	16	0	0	96	48	4
TAP	16	96	6
STR	16	144	6
SI_	16	144	6	96	48	2
TAP	16	240	3
TAP	16	288	5
TAP	16	336	7
STR	17	0	0
SI_	17	0	0	96	48	4
TAP	17	96	3
STR	17	144	3
SI_	17	144	3	96	48	7
TAP	17	240	6
TAP	17	288	0
HLD	17	336	2	96
TAP	18	48	1
TAP	18	96	1
TAP	18	144	0
TAP	18	192	0
TAP	18	240	7
TAP	18	288	7
TAP	18	336	6
STR	19	0	5
SI_	19	0	5	96	48	1
TAP	19	48	5
TAP	19	96	1
TAP	19	144	2
STR	19	192	3
SI_	19	192	3	96	48	7
TAP	19	240	3
TAP	19	288	7
TAP	19	336	6
STR	20	0	4
SI_	20	0	4	96	48	0
TAP	20	48	4
TAP	20	96	0
TAP	20	144	1
STR	20	192	2
SI_	20	192	2	96	48	6
TAP	20	240	2
TAP	20	288	6
TAP	20	336	5
STR	21	0	4
SI_	21	0	4	96	48	7
TAP	21	48	4
TAP	21	96	7
TAP	21	144	1
STR	21	192	0
SI_	21	192	0	96	48	4
TAP	21	240	0
TAP	21	288	7
STR	21	336	7
SI_	21	336	7	96	48	2
STR	22	48	0
SI_	22	48	0	96	48	5
STR	22	144	6
SI_	22	144	6	96	48	3
STR	22	240	1
SI_	22	240	1	96	48	4
BRK	22	336	7
TAP	23	0	0
TAP	23	48	0
TAP	23	96	2
TAP	23	96	3
TAP	23	192	0
TAP	23	192	7
TAP	23	240	0
TAP	23	240	7
TAP	23	336	6
TAP	24	0	6
TAP	24	48	4
TAP	24	96	4
HLD	24	144	2	96
TAP	24	240	3
TAP	24	288	3
TAP	24	336	5
TAP	25	0	5
HLD	25	48	7	96
TAP	25	144	4
TAP	25	192	3
TAP	25	240	2
TAP	25	288	1
HLD	25	336	1	96
BRK	26	48	2
BRK	26	96	3
BRK	26	144	4
BRK	26	192	5
BRK	26	240	6
BRK	26	288	7
STR	27	0	1
SI_	27	0	1	96	48	5
TAP	27	96	2
STR	27	144	2
SI_	27	144	2	96	48	6
TAP	27	240	7
STR	27	288	7
SI_	27	288	7	96	48	3
STR	28	0	5
SI_	28	0	5	96	48	1
TAP	28	96	4
STR	28	144	4
SI_	28	144	4	96	48	0
TAP	28	240	1
STR	28	288	1
SI_	28	288	1	96	48	5
STR	29	0	7
SI_	29	0	7	96	48	3
TAP	29	96	6
STR	29	144	6
SI_	29	144	6	96	48	2
TAP	29	240	5
STR	29	288	5
SI_	29	288	5	96	48	1
STR	30	0	0
SI_	30	0	0	96	48	4
TAP	30	96	1
STR	30	144	1
SI_	30	144	1	96	48	5
TAP	30	240	2
STR	30	288	2
SI_	30	288	2	96	48	6
STR	31	0	0
SI_	31	0	0	96	48	4
BRK	31	96	7
STR	31	144	7
SI_	31	144	7	96	48	3
BRK	31	240	6
STR	31	288	6
SI_	31	288	6	96	48	3
STR	32	0	0
SI_	32	0	0	96	48	4
BRK	32	96	1
STR	32	144	1
SI_	32	144	1	96	48	5
BRK	32	240	2
STR	32	288	2
SI_	32	288	2	96	48	6
STR	33	0	7
SI_	33	0	7	96	48	3
BRK	33	96	5
STR	33	144	5
SI_	33	144	5	96	48	0
TAP	33	240	0
BRK	33	288	1
BRK	34	0	2
BRK	34	0	3
BRK	34	96	4
BRK	34	96	5
BRK	34	192	6
BRK	34	192	7
STR	34	288	0
SCL	34	288	0	96	192	5
STR	34	288	1
SCR	34	288	1	96	192	4
HLD	37	0	6	144
HLD	37	144	4	144
HLD	37	288	2	144
HLD	38	48	0	144
BRK	38	192	7
BRK	38	288	7
HLD	39	0	1	144
HLD	39	144	3	144
HLD	39	288	5	144
HLD	40	48	7	144
BRK	40	192	0
BRK	40	288	0
TAP	41	0	6
TAP	41	0	7
TAP	41	48	6
TAP	41	48	7
TAP	41	96	5
TAP	41	96	6
TAP	41	144	5
TAP	41	144	6
TAP	41	192	4
TAP	41	192	5
TAP	41	240	4
TAP	41	240	5
TAP	41	288	3
TAP	41	288	4
TAP	41	336	3
TAP	41	336	4
BRK	42	0	0
BRK	42	0	1
BRK	42	48	2
BRK	42	48	3
BRK	42	96	4
BRK	42	96	5
BRK	42	144	6
BRK	42	144	7
BRK	42	192	0
BRK	42	192	1
STR	42	288	6
SI_	42	288	6	96	48	3
BRK	42	288	7
BRK	43	0	0
STR	43	48	1
SI_	43	48	1	96	48	5
TAP	43	144	0
STR	43	192	7
SI_	43	192	7	96	48	3
TAP	43	288	0
STR	43	336	0
SI_	43	336	0	96	48	4
TAP	44	48	1
STR	44	96	1
SI_	44	96	1	96	48	5
TAP	44	192	7
BRK	44	240	7
TAP	44	288	4
STR	44	288	5
SI_	44	288	5	96	48	0
BRK	45	0	1
STR	45	48	1
SI_	45	48	1	96	48	5
TAP	45	144	0
STR	45	192	0
SI_	45	192	0	96	48	4
TAP	45	288	7
STR	45	336	7
SI_	45	336	7	96	48	3
TAP	46	48	2
STR	46	96	2
SI_	46	96	2	96	48	6
BRK	46	192	7
BRK	46	240	7
TAP	47	0	0
TAP	47	48	1
TAP	47	96	2
TAP	47	144	3
TAP	47	192	4
HLD	47	240	4	96
TAP	47	336	2
TAP	48	0	2
TAP	48	48	1
TAP	48	96	0
TAP	48	144	7
TAP	48	192	6
HLD	48	240	6	96
TAP	48	336	7
TAP	49	0	7
TAP	49	48	1
TAP	49	96	1
TAP	49	144	3
TAP	49	192	3
TAP	49	240	6
TAP	49	288	4
TAP	49	336	5
TAP	50	0	3
TAP	50	48	4
TAP	50	96	2
TAP	50	144	3
TAP	50	192	1
TAP	50	240	2
STR	50	288	3
SI_	50	288	3	96	48	7
BRK	51	0	7
STR	51	48	0
SI_	51	48	0	96	48	4
TAP	51	144	6
STR	51	192	6
SI_	51	192	6	96	48	2
TAP	51	288	4
STR	51	336	4
SI_	51	336	4	96	49	0
TAP	52	48	2
STR	52	96	2
SI_	52	96	2	96	48	6
TAP	52	192	0
BRK	52	240	0
STR	52	288	6
SI_	52	288	6	96	48	3
TAP	52	288	7
BRK	53	0	0
STR	53	48	0
SI_	53	48	0	96	48	5
TAP	53	144	2
STR	53	192	2
SI_	53	192	2	96	48	6
TAP	53	288	4
STR	53	336	4
SI_	53	336	4	96	48	1
TAP	54	48	0
STR	54	96	0
SI_	54	96	0	96	48	4
BRK	54	192	7
BRK	54	240	7
TAP	55	0	0
TAP	55	48	1
TAP	55	96	2
TAP	55	144	3
TAP	55	192	4
HLD	55	240	4	96
TAP	55	336	2
TAP	56	0	2
TAP	56	48	1
TAP	56	96	0
TAP	56	144	7
TAP	56	192	6
HLD	56	240	6	96
TAP	56	336	7
TAP	57	0	7
TAP	57	48	1
TAP	57	96	1
TAP	57	144	3
TAP	57	192	3
TAP	57	240	6
TAP	57	288	4
TAP	57	336	5
TAP	58	0	3
TAP	58	48	4
TAP	58	96	2
TAP	58	144	3
TAP	58	192	1
TAP	58	240	2
STR	58	288	3
SI_	58	288	3	96	48	7
BRK	59	0	7
STR	59	48	0
SI_	59	48	0	96	48	4
BRK	59	144	6
STR	59	192	6
SI_	59	192	6	96	48	2
BRK	59	288	4
STR	59	336	4
SI_	59	336	4	96	49	0
BRK	60	48	2
STR	60	96	2
SI_	60	96	2	96	48	6
BRK	60	192	0
STR	60	288	0
SI_	60	288	0	96	192	3
STR	60	288	7
SI_	60	288	7	96	192	4
TAP	62	192	7
TAP	62	216	6
TAP	62	240	5
TAP	62	264	4
TAP	62	288	3
TAP	62	312	2
TAP	62	336	1
TAP	62	360	0
STR	63	0	7
SI_	63	0	7	96	48	3
BRK	63	96	0
HLD	63	144	0	96
BRK	63	240	1
STR	63	288	1
SI_	63	288	1	96	48	5
BRK	64	0	2
HLD	64	48	2	96
BRK	64	192	0
BRK	64	192	1
BRK	64	288	6
BRK	64	288	7
STR	65	0	5
SI_	65	0	5	96	48	0
TAP	65	0	7
BRK	65	96	1
TAP	65	192	1
STR	65	192	3
SI_	65	192	3	96	48	7
BRK	65	288	6
TAP	66	0	4
TAP	66	0	5
TAP	66	96	2
TAP	66	96	3
BRK	66	192	4
BRK	66	192	5
BRK	66	240	5
BRK	66	240	6
BRK	66	288	6
BRK	66	288	7
BRK	66	336	0
BRK	66	336	7
TAP	67	0	6
TAP	67	48	5
TAP	67	96	3
TAP	67	96	4
TAP	67	144	5
TAP	67	192	6
TAP	67	240	7
TAP	67	288	0
TAP	67	288	1
TAP	67	336	2
TAP	68	0	7
TAP	68	48	6
TAP	68	96	4
TAP	68	96	5
TAP	68	144	3
TAP	68	192	2
TAP	68	240	3
TAP	68	288	4
TAP	68	288	5
TAP	68	336	6
TAP	69	0	6
TAP	69	48	5
TAP	69	96	3
TAP	69	96	4
TAP	69	144	5
TAP	69	192	7
TAP	69	240	0
TAP	69	288	1
TAP	69	288	2
HLD	69	336	3	96
TAP	70	48	4
TAP	70	96	5
TAP	70	96	6
TAP	70	144	0
TAP	70	192	6
TAP	70	192	7
TAP	70	240	5
TAP	70	288	0
TAP	70	288	7
TAP	70	336	1
TAP	71	0	7
TAP	71	48	6
TAP	71	96	4
TAP	71	96	5
TAP	71	144	3
TAP	71	192	2
TAP	71	240	1
TAP	71	288	0
TAP	71	288	7
TAP	71	336	5
TAP	72	0	5
TAP	72	48	3
TAP	72	96	2
TAP	72	96	3
TAP	72	144	4
TAP	72	192	6
TAP	72	240	0
TAP	72	288	1
TAP	72	288	2
TAP	72	336	0
TAP	73	0	7
TAP	73	48	6
TAP	73	96	4
TAP	73	96	5
TAP	73	144	3
TAP	73	192	2
TAP	73	240	1
TAP	73	288	0
TAP	73	288	7
HLD	73	336	6	96
TAP	74	48	5
BRK	74	96	0
BRK	74	96	7
TAP	74	144	1
BRK	74	192	0
BRK	74	192	7
TAP	74	240	6
BRK	74	288	0
BRK	74	288	7
TAP	74	336	1
TAP	75	0	7
TAP	75	48	6
TAP	75	96	4
TAP	75	96	5
TAP	75	144	3
TAP	75	192	2
TAP	75	240	1
TAP	75	288	0
TAP	75	288	7
TAP	75	336	5
TAP	76	0	5
TAP	76	48	3
TAP	76	96	2
TAP	76	96	3
TAP	76	144	4
TAP	76	192	6
TAP	76	240	0
TAP	76	288	1
TAP	76	288	2
TAP	76	336	0
TAP	77	0	7
TAP	77	48	6
TAP	77	96	4
TAP	77	96	5
TAP	77	144	7
TAP	77	192	0
HLD	77	240	1	96
TAP	77	336	0
TAP	78	0	6
TAP	78	0	7
TAP	78	48	5
TAP	78	96	3
TAP	78	96	4
BRK	78	144	0
BRK	78	144	1
TAP	79	0	0
TAP	79	48	1
TAP	79	96	2
TAP	79	96	3
TAP	79	144	4
TAP	79	192	5
TAP	79	240	6
TAP	79	288	0
TAP	79	288	7
TAP	79	336	2
TAP	80	0	2
TAP	80	48	4
TAP	80	96	4
TAP	80	96	5
TAP	80	144	3
TAP	80	192	1
TAP	80	240	7
TAP	80	288	5
TAP	80	288	6
TAP	80	336	7
TAP	81	0	0
TAP	81	48	1
TAP	81	96	2
TAP	81	96	3
TAP	81	144	0
TAP	81	192	7
HLD	81	240	6	96
TAP	81	336	7
TAP	82	0	0
TAP	82	0	1
TAP	82	48	2
TAP	82	96	3
TAP	82	96	4
BRK	82	144	5
BRK	82	144	6
BRK	82	192	6
BRK	82	192	7
BRK	82	240	0
BRK	82	240	7
HLD	82	288	0	144
HLD	82	288	1	144

T_REC_TAP	385
T_REC_BRK	87
T_REC_XTP	0
T_REC_HLD	27
T_REC_XHO	0
T_REC_STR	76
T_REC_BST	0
T_REC_XST	0
T_REC_TTP	0
T_REC_THO	0
T_REC_SLD	76
T_REC_ALL	651
T_NUM_TAP	461
T_NUM_BRK	87
T_NUM_HLD	27
T_NUM_SLD	76
T_NUM_ALL	651
T_JUDGE_TAP	548
T_JUDGE_HLD	64
T_JUDGE_SLD	76
T_JUDGE_ALL	688
TTM_EACHPAIRS	89
TTM_SCR_TAP	230500
TTM_SCR_BRK	226200
TTM_SCR_HLD	27000
TTM_SCR_SLD	114000
TTM_SCR_ALL	597700
TTM_SCR_S	571350
TTM_SCR_SS	589000
TTM_RAT_ACV	10147

