VERSION	0.00.00	1.03.00
FES_MODE	0
BPM_DEF	185.000	185.000	185.000	185.000
MET_DEF	4	4
RESOLUTION	384
CLK_DEF	384
COMPATIBLE_CODE	MA2

BPM	0	0	185.000
MET	0	0	4	4

TAP	3	0	2
TAP	3	96	2
TAP	3	96	3
TAP	3	192	5
TAP	3	288	4
TAP	3	288	5
TAP	4	0	2
TAP	4	96	1
TAP	4	96	3
TAP	4	192	5
TAP	4	288	4
TAP	4	288	6
TAP	5	0	2
TAP	5	96	2
TAP	5	96	3
TAP	5	192	5
TAP	5	288	4
TAP	5	288	5
TAP	6	0	2
TAP	6	96	2
TAP	6	192	2
BRK	6	288	1
BRK	6	288	3
TAP	7	0	5
TAP	7	96	4
TAP	7	96	5
TAP	7	192	2
TAP	7	288	2
TAP	7	288	3
TAP	8	0	5
TAP	8	96	4
TAP	8	96	6
TAP	8	192	2
TAP	8	288	1
TAP	8	288	3
TAP	9	0	5
TAP	9	96	4
TAP	9	96	5
TAP	9	192	2
TAP	9	288	2
TAP	9	288	3
TAP	10	0	5
TAP	10	96	5
TAP	10	192	5
BRK	10	288	4
BRK	10	288	6
TAP	11	0	1
TAP	11	96	0
TAP	11	192	1
TAP	11	288	2
TAP	11	288	7
TAP	12	0	6
TAP	12	96	7
TAP	12	192	6
TAP	12	288	0
TAP	12	288	5
TAP	13	0	2
TAP	13	96	3
TAP	13	192	2
TAP	13	288	1
TAP	13	288	4
TAP	14	0	3
TAP	14	0	5
TAP	14	96	2
TAP	14	96	4
TAP	14	192	3
TAP	14	192	5
TAP	14	288	2
TAP	14	288	4
TAP	15	0	5
TAP	15	96	4
TAP	15	192	5
TAP	15	288	3
TAP	15	288	6
TAP	16	0	2
TAP	16	96	3
TAP	16	192	2
TAP	16	288	1
TAP	16	288	4
TAP	17	0	6
TAP	17	96	7
TAP	17	192	6
TAP	17	288	0
TAP	17	288	5
TAP	18	0	1
TAP	18	0	7
TAP	18	96	0
TAP	18	96	6
TAP	18	192	1
TAP	18	192	7
TAP	18	288	0
TAP	18	288	6
TAP	19	0	7
TAP	19	96	6
TAP	19	192	0
TAP	19	192	5
TAP	19	288	1
TAP	19	288	3
TAP	20	0	0
TAP	20	96	1
TAP	20	192	2
TAP	20	192	7
TAP	20	288	4
TAP	20	288	6
TAP	21	0	7
TAP	21	96	6
TAP	21	192	0
TAP	21	192	5
TAP	21	288	1
TAP	21	288	3
TAP	22	0	2
TAP	22	0	4
TAP	22	96	3
TAP	22	96	6
TAP	22	192	1
TAP	22	192	4
TAP	22	288	3
TAP	22	288	6
TAP	23	0	0
TAP	23	96	1
TAP	23	192	2
TAP	23	192	7
TAP	23	288	4
TAP	23	288	6
TAP	24	0	7
TAP	24	96	4
TAP	24	96	6
TAP	24	192	7
TAP	24	288	6
TAP	25	0	0
TAP	25	0	5
TAP	25	96	7
TAP	25	192	6
BRK	25	288	0
BRK	25	288	5
TAP	26	0	7
TAP	26	96	6
STR	26	192	4
SCL	26	192	4	96	48	1
TAP	27	0	0
TAP	27	48	1
TAP	27	96	2
TAP	27	144	2
TAP	27	144	3
TAP	27	240	3
TAP	27	288	2
TAP	27	336	0
TAP	27	336	1
TAP	28	48	7
TAP	28	96	6
TAP	28	144	4
TAP	28	144	5
TAP	28	240	4
TAP	28	288	5
TAP	28	336	6
TAP	28	336	7
TAP	29	48	5
TAP	29	96	4
TAP	29	144	2
TAP	29	144	3
TAP	29	240	2
TAP	29	288	3
TAP	29	336	4
TAP	30	0	5
STR	30	48	6
SCL	30	48	6	96	96	3
TAP	31	0	1
TAP	31	48	1
TAP	31	48	2
TAP	31	96	2
TAP	31	144	2
TAP	31	144	3
TAP	31	240	5
TAP	31	240	6
TAP	31	288	5
TAP	31	336	4
TAP	31	336	5
TAP	32	48	0
TAP	32	48	1
TAP	32	96	1
TAP	32	144	1
TAP	32	144	2
TAP	32	240	6
TAP	32	240	7
TAP	32	288	6
TAP	32	336	5
TAP	32	336	6
TAP	33	48	0
TAP	33	48	1
TAP	33	96	0
TAP	33	144	0
TAP	33	144	7
TAP	33	240	6
TAP	33	240	7
TAP	33	288	7
TAP	33	336	0
TAP	33	336	7
HLD	34	0	0	96
HLD	34	96	7	96
HLD	34	192	6	96
TAP	34	288	5
TAP	35	0	6
TAP	35	0	7
TAP	35	144	0
TAP	35	144	1
TAP	35	288	4
TAP	35	288	5
TAP	36	48	2
TAP	36	48	3
TAP	36	192	3
TAP	36	192	4
TAP	37	0	5
TAP	37	0	7
TAP	37	96	1
TAP	37	144	0
TAP	37	144	2
TAP	37	240	6
TAP	37	288	5
TAP	37	288	7
TAP	38	0	2
TAP	38	48	1
TAP	38	48	3
TAP	38	144	5
TAP	38	192	4
TAP	38	192	6
TAP	38	288	3
TAP	38	288	4
TAP	39	0	0
TAP	39	0	5
TAP	39	96	0
TAP	39	96	1
TAP	39	144	2
TAP	39	144	7
TAP	39	240	6
TAP	39	240	7
TAP	39	288	0
TAP	39	288	5
TAP	40	0	2
TAP	40	0	3
TAP	40	48	1
TAP	40	48	4
TAP	40	144	4
TAP	40	144	5
TAP	40	192	3
TAP	40	192	6
TAP	40	288	3
TAP	40	288	4
TAP	41	0	2
TAP	41	0	3
TAP	41	96	1
TAP	41	144	0
TAP	41	192	7
TAP	41	240	6
TAP	41	288	5
TAP	41	336	4
TAP	42	0	3
TAP	42	48	2
TAP	42	96	1
TAP	42	144	0
BRK	42	192	0
BRK	42	192	7
TAP	42	288	6
TAP	43	0	7
HLD	43	48	7	96
TAP	43	144	0
HLD	43	192	0	96
TAP	43	288	1
HLD	43	336	1	96
TAP	44	48	2
HLD	44	96	2	96
STR	44	192	3
SCR	44	192	3	96	48	6
TAP	45	0	0
HLD	45	48	0	96
TAP	45	144	7
HLD	45	192	7	96
TAP	45	288	6
HLD	45	336	6	96
TAP	46	48	5
HLD	46	96	5	96
STR	46	192	4
SCL	46	192	4	96	48	1
TAP	47	0	6
TAP	47	48	5
TAP	47	96	4
TAP	47	144	5
TAP	47	192	6
TAP	47	240	5
TAP	47	336	2
TAP	48	0	1
TAP	48	48	2
TAP	48	96	3
TAP	48	144	2
TAP	48	192	1
TAP	48	240	2
TAP	48	336	0
TAP	49	0	7
TAP	49	48	6
TAP	49	96	5
TAP	49	144	4
TAP	49	192	3
STR	49	240	2
SCL	49	240	2	96	96	7
TAP	50	192	5
TAP	50	288	2
TAP	50	288	6
TAP	51	0	0
TAP	51	96	1
TAP	51	96	7
TAP	51	192	6
TAP	51	288	5
TAP	51	288	7
TAP	52	0	1
TAP	52	96	0
TAP	52	96	2
TAP	52	192	4
TAP	52	288	3
TAP	52	288	5
TAP	53	0	1
TAP	53	96	2
TAP	53	96	7
TAP	53	192	6
TAP	53	288	0
TAP	53	288	5
TAP	54	0	3
TAP	54	96	1
TAP	54	96	4
TAP	54	192	5
TAP	54	288	3
TAP	54	288	6
TAP	55	0	4
TAP	55	0	5
TAP	55	96	4
TAP	55	96	5
HLD	55	192	3	96
HLD	55	192	6	96
TAP	56	0	2
TAP	56	0	3
TAP	56	96	2
TAP	56	96	3
HLD	56	192	1	96
HLD	56	192	4	96
TAP	57	0	3
TAP	57	96	1
TAP	57	96	2
TAP	57	192	4
STR	57	288	5
SI_	57	288	5	96	48	0
STR	57	288	6
SI_	57	288	6	96	48	3
HLD	58	192	3	96
HLD	58	288	5	96
HLD	59	0	7	144
HLD	59	144	0	144
HLD	59	288	6	144
HLD	60	48	4	144
HLD	60	192	2	96
TAP	60	288	0
TAP	61	0	5
TAP	61	96	6
TAP	61	96	7
TAP	61	192	2
TAP	61	288	0
TAP	61	288	1
TAP	62	0	5
TAP	62	96	6
TAP	62	96	7
TAP	62	192	2
TAP	62	288	0
TAP	62	288	1
TAP	63	0	3
TAP	63	96	5
TAP	63	96	7
TAP	63	192	4
TAP	63	288	0
TAP	63	288	2
TAP	64	0	3
TAP	64	96	5
TAP	64	96	7
TAP	64	192	4
TAP	64	288	0
TAP	64	288	2
HLD	65	0	6	96
HLD	65	0	7	96
HLD	65	192	0	96
HLD	65	192	1	96
TAP	66	0	6
TAP	66	0	7
TAP	66	96	0
TAP	66	96	1
BRK	66	192	6
BRK	66	240	7
BRK	66	288	0
BRK	66	336	1
STR	67	0	2
SI_	67	0	2	96	48	7
TAP	67	192	0
TAP	67	288	2
TAP	67	288	3
STR	68	0	5
SI_	68	0	5	96	48	0
TAP	68	192	7
TAP	68	288	4
TAP	68	288	5
STR	69	0	1
SI_	69	0	1	96	48	4
TAP	69	192	3
TAP	69	288	0
TAP	69	288	1
STR	70	0	6
SI_	70	0	6	96	48	3
STR	70	192	1
SI_	70	192	1	96	48	4
STR	71	0	7
SI_	71	0	7	96	48	3
TAP	71	192	0
TAP	71	288	1
TAP	71	288	3
STR	72	0	0
SI_	72	0	0	96	48	4
TAP	72	192	7
TAP	72	288	4
TAP	72	288	6
STR	73	0	7
SI_	73	0	7	96	48	3
TAP	73	192	0
TAP	73	288	1
TAP	73	288	3
STR	74	0	0
SI_	74	0	0	96	48	4
STR	74	192	7
SI_	74	192	7	96	48	3
STR	75	0	0
SI_	75	0	0	96	48	5
TAP	75	192	7
TAP	75	288	4
TAP	75	288	6
STR	76	0	7
SI_	76	0	7	96	48	2
TAP	76	96	0
TAP	76	192	1
TAP	76	192	3
STR	76	288	0
SI_	76	288	0	96	48	4
TAP	77	0	6
TAP	77	96	1
TAP	77	96	3
STR	77	192	3
SI_	77	192	3	96	48	7
STR	78	0	4
SI_	78	0	4	96	48	0
TAP	79	0	0
TAP	79	96	1
TAP	79	192	2
TAP	79	288	2
TAP	79	288	3
TAP	80	0	3
TAP	80	96	4
TAP	80	192	4
TAP	80	192	5
TAP	80	288	5
TAP	81	0	6
TAP	81	96	6
TAP	81	96	7
TAP	81	192	0
TAP	81	288	2
TAP	81	288	4
TAP	82	0	3
TAP	82	0	5
TAP	82	96	2
TAP	82	96	4
STR	82	192	0
SI_	82	192	0	96	48	4

T_REC_TAP	389
T_REC_BRK	12
T_REC_XTP	0
T_REC_HLD	26
T_REC_XHO	0
T_REC_STR	23
T_REC_BST	0
T_REC_XST	0
T_REC_TTP	0
T_REC_THO	0
T_REC_SLD	23
T_REC_ALL	473
T_NUM_TAP	412
T_NUM_BRK	12
T_NUM_HLD	26
T_NUM_SLD	23
T_NUM_ALL	473
T_JUDGE_TAP	424
T_JUDGE_HLD	56
T_JUDGE_SLD	23
T_JUDGE_ALL	503
TTM_EACHPAIRS	127
TTM_SCR_TAP	206000
TTM_SCR_BRK	31200
TTM_SCR_HLD	26000
TTM_SCR_SLD	34500
TTM_SCR_ALL	297700
TTM_SCR_S	287650
TTM_SCR_SS	296500
TTM_RAT_ACV	10040

