VERSION	0.00.00	1.03.00
FES_MODE	0
BPM_DEF	185.000	185.000	185.000	185.000
MET_DEF	4	4
RESOLUTION	384
CLK_DEF	384
COMPATIBLE_CODE	MA2

BPM	0	0	185.000
MET	0	0	4	4

TAP	2	288	3
TAP	2	288	4
TAP	3	0	2
TAP	3	96	0
TAP	3	96	7
TAP	3	192	6
TAP	3	288	3
TAP	3	288	4
TAP	4	0	5
TAP	4	96	0
TAP	4	96	7
TAP	4	192	1
TAP	4	288	3
TAP	4	288	4
TAP	5	0	2
TAP	5	96	0
TAP	5	96	7
TAP	5	192	6
TAP	5	288	3
TAP	5	288	4
TAP	6	0	1
TAP	6	0	5
TAP	6	96	2
TAP	6	96	6
TAP	6	192	1
TAP	6	192	5
TAP	6	288	0
TAP	6	288	7
TAP	7	0	5
TAP	7	96	0
TAP	7	96	7
TAP	7	192	1
TAP	7	288	3
TAP	7	288	4
TAP	8	0	2
TAP	8	96	0
TAP	8	96	7
TAP	8	192	6
TAP	8	288	3
TAP	8	288	4
TAP	9	0	5
TAP	9	96	0
TAP	9	96	7
TAP	9	192	1
TAP	9	288	3
TAP	9	288	4
TAP	10	0	2
TAP	10	0	6
TAP	10	96	1
TAP	10	96	5
TAP	10	192	2
TAP	10	192	6
TAP	10	288	0
TAP	10	288	7
HLD	11	0	1	96
TAP	11	96	0
HLD	11	192	7	96
TAP	11	288	0
HLD	12	0	1	96
TAP	12	96	0
HLD	12	192	7	96
TAP	12	288	0
HLD	13	0	1	96
TAP	13	96	0
HLD	13	192	7	96
TAP	13	288	0
TAP	14	0	1
TAP	14	0	5
TAP	14	96	2
TAP	14	96	6
TAP	14	192	1
TAP	14	192	5
TAP	14	288	0
TAP	14	288	7
HLD	15	0	6	96
TAP	15	96	7
HLD	15	192	0	96
TAP	15	288	7
HLD	16	0	6	96
TAP	16	96	7
HLD	16	192	0	96
TAP	16	288	7
HLD	17	0	6	96
TAP	17	96	7
HLD	17	192	0	96
TAP	17	288	7
TAP	18	0	2
TAP	18	0	6
TAP	18	96	1
TAP	18	96	5
TAP	18	192	2
TAP	18	192	6
TAP	18	288	0
TAP	18	288	7
HLD	19	0	2	96
TAP	19	96	4
HLD	19	192	5	96
TAP	19	288	3
HLD	20	0	2	96
TAP	20	96	4
HLD	20	192	5	96
TAP	20	288	3
HLD	21	0	2	96
TAP	21	96	4
HLD	21	192	5	96
TAP	21	288	3
TAP	22	0	1
TAP	22	0	5
TAP	22	96	2
TAP	22	96	6
TAP	22	192	1
TAP	22	192	5
TAP	22	288	0
TAP	22	288	7
HLD	23	0	3	96
TAP	23	96	2
HLD	23	192	4	96
TAP	23	288	5
HLD	24	0	3	96
TAP	24	96	2
HLD	24	192	4	96
TAP	24	288	5
HLD	25	0	3	96
TAP	25	96	2
HLD	25	192	4	480
HLD	25	288	5	384
TAP	27	0	0
TAP	27	96	0
TAP	27	96	7
TAP	27	192	6
TAP	27	288	1
TAP	27	288	6
TAP	28	0	2
TAP	28	96	2
TAP	28	96	5
TAP	28	192	4
TAP	28	288	3
TAP	28	288	4
TAP	29	0	3
TAP	29	96	3
TAP	29	96	4
TAP	29	192	5
TAP	29	288	2
TAP	29	288	5
TAP	30	0	1
TAP	30	96	1
TAP	30	96	6
TAP	30	192	7
TAP	30	288	0
TAP	30	288	7
TAP	31	0	6
TAP	31	96	6
TAP	31	96	7
TAP	31	192	0
TAP	31	288	0
TAP	31	288	5
TAP	32	0	4
TAP	32	96	1
TAP	32	96	4
TAP	32	192	2
TAP	32	288	2
TAP	32	288	3
TAP	33	0	5
TAP	33	96	4
TAP	33	96	5
TAP	33	192	3
TAP	33	288	3
TAP	33	288	6
TAP	34	0	7
TAP	34	96	2
TAP	34	96	7
TAP	34	192	1
STR	34	288	0
SCL	34	288	0	96	288	5
STR	34	288	1
SCR	34	288	1	96	288	4
TAP	36	192	4
TAP	36	288	4
HLD	37	0	5	144
HLD	37	144	2	144
HLD	37	288	5	144
HLD	38	48	2	144
TAP	38	192	3
TAP	38	288	3
HLD	39	0	1	144
HLD	39	144	6	144
HLD	39	288	1	144
HLD	40	48	6	144
TAP	40	192	0
TAP	40	288	0
HLD	41	0	6	144
HLD	41	144	1	144
HLD	41	288	6	144
HLD	42	48	1	144
TAP	42	192	7
TAP	42	288	7
TAP	43	0	0
TAP	43	48	0
TAP	43	144	6
TAP	43	192	6
TAP	43	288	0
TAP	43	336	0
TAP	44	48	6
TAP	44	96	6
TAP	44	192	0
TAP	44	240	1
TAP	45	0	7
TAP	45	48	7
TAP	45	144	1
TAP	45	192	1
TAP	45	288	7
TAP	45	336	7
TAP	46	48	1
TAP	46	96	1
TAP	46	192	7
TAP	46	240	6
TAP	47	0	5
TAP	47	96	5
TAP	47	192	4
TAP	47	192	6
TAP	47	288	4
TAP	47	288	6
TAP	48	0	2
TAP	48	96	2
TAP	48	192	1
TAP	48	192	3
TAP	48	288	1
TAP	48	288	3
TAP	49	0	4
TAP	49	96	2
TAP	49	96	5
TAP	49	192	1
TAP	49	192	4
TAP	49	288	2
TAP	49	288	5
TAP	50	0	0
TAP	50	0	6
TAP	50	192	0
TAP	50	288	0
TAP	51	0	6
TAP	51	48	6
TAP	51	144	7
TAP	51	192	7
TAP	51	288	0
TAP	51	336	0
TAP	52	48	1
TAP	52	96	1
TAP	52	192	7
TAP	52	240	0
TAP	53	0	1
TAP	53	48	1
TAP	53	144	0
TAP	53	192	0
TAP	53	288	7
TAP	53	336	7
TAP	54	48	6
TAP	54	96	6
TAP	54	192	0
TAP	54	240	7
TAP	55	0	3
TAP	55	96	3
TAP	55	192	2
TAP	55	192	5
TAP	55	288	2
TAP	55	288	5
TAP	56	0	4
TAP	56	96	4
TAP	56	192	2
TAP	56	192	5
TAP	56	288	2
TAP	56	288	5
TAP	57	0	3
TAP	57	96	2
TAP	57	96	5
TAP	57	192	4
TAP	57	288	2
TAP	57	288	5
TAP	58	0	0
TAP	58	0	7
TAP	58	192	3
TAP	58	192	4
TAP	58	288	3
TAP	58	288	4
TAP	59	0	1
TAP	59	0	5
TAP	59	144	2
TAP	59	144	6
TAP	59	288	1
TAP	59	288	5
TAP	60	48	2
TAP	60	48	6
TAP	60	192	1
TAP	60	192	5
TAP	60	288	2
TAP	60	288	3
STR	61	0	6
SCL	61	0	6	96	288	3
STR	61	0	7
SCR	61	0	7	96	288	2
TAP	62	192	3
TAP	62	192	4
TAP	62	288	3
TAP	62	288	4
TAP	63	0	2
TAP	63	0	6
TAP	63	144	1
TAP	63	144	5
TAP	63	288	2
TAP	63	288	6
TAP	64	48	1
TAP	64	48	5
TAP	64	192	0
TAP	64	192	7
TAP	64	288	0
TAP	64	288	7
TAP	65	0	0
TAP	65	192	0
TAP	66	0	7
TAP	66	96	7
BRK	66	192	0
BRK	66	240	0
BRK	66	288	0
BRK	66	336	0
TAP	67	0	7
TAP	67	96	1
TAP	67	96	2
TAP	67	192	3
TAP	67	288	5
TAP	67	288	6
TAP	68	0	4
TAP	68	96	1
TAP	68	96	2
TAP	68	192	0
TAP	68	288	5
TAP	68	288	6
TAP	69	0	7
TAP	69	96	1
TAP	69	96	2
TAP	69	192	3
TAP	69	288	5
TAP	69	288	6
TAP	70	0	1
TAP	70	0	5
TAP	70	96	2
TAP	70	96	6
TAP	70	192	1
TAP	70	192	5
TAP	70	288	0
TAP	70	288	7
TAP	71	0	0
TAP	71	96	5
TAP	71	96	6
TAP	71	192	4
TAP	71	288	1
TAP	71	288	2
TAP	72	0	3
TAP	72	96	5
TAP	72	96	6
TAP	72	192	7
TAP	72	288	1
TAP	72	288	2
TAP	73	0	0
TAP	73	96	5
TAP	73	96	6
TAP	73	192	4
TAP	73	288	1
TAP	73	288	2
TAP	74	0	2
TAP	74	0	6
TAP	74	96	1
TAP	74	96	5
TAP	74	192	2
TAP	74	192	6
TAP	74	288	0
TAP	74	288	7
TAP	75	0	7
TAP	75	96	1
TAP	75	96	2
TAP	75	192	3
TAP	75	288	5
TAP	75	288	6
TAP	76	0	4
TAP	76	96	1
TAP	76	96	2
TAP	76	192	0
TAP	76	288	5
TAP	76	288	6
TAP	77	0	1
TAP	77	0	2
TAP	77	96	3
TAP	77	192	5
TAP	77	192	6
TAP	77	288	1
TAP	77	288	5
TAP	78	0	2
TAP	78	0	6
TAP	78	96	1
TAP	78	96	5
TAP	78	192	0
TAP	78	192	7
BRK	79	0	0
TAP	79	96	5
TAP	79	96	6
TAP	79	192	4
TAP	79	288	1
TAP	79	288	2
TAP	80	0	3
TAP	80	96	5
TAP	80	96	6
TAP	80	192	7
TAP	80	288	1
TAP	80	288	2
TAP	81	0	5
TAP	81	0	6
TAP	81	96	4
TAP	81	192	1
TAP	81	192	2
TAP	81	288	2
TAP	81	288	6
TAP	82	0	1
TAP	82	0	5
TAP	82	96	2
TAP	82	96	6
TAP	82	192	0
TAP	82	192	7
TAP	82	288	2
TAP	82	288	5

T_REC_TAP	377
T_REC_BRK	5
T_REC_XTP	0
T_REC_HLD	37
T_REC_XHO	0
T_REC_STR	4
T_REC_BST	0
T_REC_XST	0
T_REC_TTP	0
T_REC_THO	0
T_REC_SLD	4
T_REC_ALL	427
T_NUM_TAP	381
T_NUM_BRK	5
T_NUM_HLD	37
T_NUM_SLD	4
T_NUM_ALL	427
T_JUDGE_TAP	386
T_JUDGE_HLD	100
T_JUDGE_SLD	4
T_JUDGE_ALL	490
TTM_EACHPAIRS	122
TTM_SCR_TAP	190500
TTM_SCR_BRK	13000
TTM_SCR_HLD	37000
TTM_SCR_SLD	6000
TTM_SCR_ALL	246500
TTM_SCR_S	238650
TTM_SCR_SS	246000
TTM_RAT_ACV	10020

