VERSION	0.00.00	1.03.00
FES_MODE	0
BPM_DEF	185.000	185.000	185.000	185.000
MET_DEF	4	4
RESOLUTION	384
CLK_DEF	384
COMPATIBLE_CODE	MA2

BPM	0	0	185.000
MET	0	0	4	4

TAP	3	0	0
TAP	4	0	1
TAP	5	0	0
TAP	6	0	1
BRK	6	192	1
TAP	7	0	1
TAP	8	0	2
TAP	9	0	1
TAP	10	0	2
BRK	10	192	2
TAP	11	0	2
TAP	12	0	2
HLD	13	0	3	192
TAP	14	0	4
TAP	14	96	4
TAP	14	192	4
TAP	15	0	5
TAP	16	0	5
HLD	17	0	4	192
TAP	18	0	3
TAP	18	96	3
TAP	18	192	3
TAP	19	0	2
TAP	19	192	2
TAP	20	0	1
TAP	20	192	1
TAP	21	0	2
TAP	21	192	2
HLD	22	0	1	192
TAP	23	0	0
TAP	23	96	0
TAP	23	192	0
TAP	24	0	7
TAP	24	96	7
TAP	24	192	7
TAP	25	0	6
TAP	25	96	6
TAP	25	192	6
HLD	26	0	7	192
STR	27	0	0
SI_	27	0	0	96	288	4
STR	29	0	7
SI_	29	0	7	96	288	3
STR	31	0	1
SI_	31	0	1	96	288	6
STR	33	0	5
SI_	33	0	5	96	288	2
STR	35	0	3
SI_	35	0	3	96	288	0
STR	37	0	4
SI_	37	0	4	96	288	7
STR	39	0	2
SI_	39	0	2	96	288	7
STR	41	0	5
SI_	41	0	5	96	288	0
TAP	43	0	6
TAP	43	0	7
TAP	43	192	7
TAP	44	0	0
TAP	44	0	7
TAP	44	192	0
TAP	45	0	0
TAP	45	0	1
TAP	45	192	0
HLD	46	0	0	192
HLD	46	0	7	192
TAP	47	0	6
TAP	47	192	6
TAP	48	0	5
TAP	48	192	5
TAP	49	0	4
TAP	49	96	4
TAP	49	192	4
TAP	49	288	4
HLD	50	0	3	192
TAP	51	0	2
TAP	51	0	3
TAP	51	192	3
TAP	52	0	3
TAP	52	0	4
TAP	52	192	4
TAP	53	0	4
TAP	53	0	5
TAP	53	192	4
HLD	54	0	3	192
HLD	54	0	4	192
TAP	55	0	2
TAP	55	192	2
TAP	56	0	1
TAP	56	192	1
TAP	57	0	0
TAP	57	96	0
TAP	57	192	0
TAP	57	288	0
HLD	58	0	7	192
TAP	59	0	0
TAP	59	192	1
TAP	60	0	0
TAP	60	192	7
HLD	61	0	0	384
TAP	63	0	7
TAP	63	192	6
TAP	64	0	7
TAP	64	192	0
TAP	65	0	7
TAP	65	192	0
TAP	66	0	7
TAP	66	96	7
TAP	66	192	0
BRK	66	288	0
HLD	67	0	7	192
HLD	68	0	7	192
HLD	69	0	6	384
HLD	71	0	0	192
HLD	72	0	0	192
HLD	73	0	1	384
HLD	75	0	7	192
HLD	76	0	7	192
HLD	77	0	6	192
HLD	79	0	0	192
HLD	80	0	0	192
HLD	81	0	1	192
BRK	82	288	0

T_REC_TAP	80
T_REC_BRK	4
T_REC_XTP	0
T_REC_HLD	23
T_REC_XHO	0
T_REC_STR	8
T_REC_BST	0
T_REC_XST	0
T_REC_TTP	0
T_REC_THO	0
T_REC_SLD	8
T_REC_ALL	123
T_NUM_TAP	88
T_NUM_BRK	4
T_NUM_HLD	23
T_NUM_SLD	8
T_NUM_ALL	123
T_JUDGE_TAP	92
T_JUDGE_HLD	104
T_JUDGE_SLD	8
T_JUDGE_ALL	204
TTM_EACHPAIRS	8
TTM_SCR_TAP	44000
TTM_SCR_BRK	10400
TTM_SCR_HLD	23000
TTM_SCR_SLD	12000
TTM_SCR_ALL	89400
TTM_SCR_S	86350
TTM_SCR_SS	89000
TTM_RAT_ACV	10044

