VERSION	0.00.00	1.03.00
FES_MODE	0
BPM_DEF	160.000	160.000	160.000	160.000
MET_DEF	4	4
RESOLUTION	384
CLK_DEF	384
COMPATIBLE_CODE	MA2

BPM	0	0	160.000
MET	0	0	4	4

STR	1	0	1
SI_	1	0	1	96	96	4
STR	1	144	6
SCR	1	144	6	96	96	1
STR	2	0	6
SI_	2	0	6	96	96	3
STR	2	144	1
SCL	2	144	1	96	96	6
STR	3	0	0
SI_	3	0	0	96	96	3
STR	3	144	0
SCL	3	144	0	96	96	5
STR	4	0	7
SI_	4	0	7	96	96	4
STR	4	144	7
SCR	4	144	7	96	96	2
STR	5	0	0
SI_	5	0	0	96	96	5
STR	5	144	2
SCR	5	144	2	96	96	5
STR	6	0	7
SI_	6	0	7	96	96	2
STR	6	144	5
SCL	6	144	5	96	96	2
STR	7	0	0
SI_	7	0	0	96	96	4
STR	7	144	1
SCL	7	144	1	96	96	6
STR	8	0	7
SI_	8	0	7	96	96	3
STR	8	144	6
SCR	8	144	6	96	96	1
TAP	8	192	6
TAP	8	264	5
BRK	8	336	4
STR	9	0	4
SI_	9	0	4	96	48	0
TAP	9	192	6
TAP	9	240	5
TAP	9	288	3
TAP	9	288	4
TAP	9	336	2
TAP	10	48	7
TAP	10	96	0
TAP	10	144	1
TAP	10	192	2
TAP	10	192	3
TAP	10	240	4
TAP	10	288	5
TAP	10	336	6
TAP	11	48	4
TAP	11	96	3
TAP	11	144	2
TAP	11	192	0
TAP	11	192	1
TAP	11	240	7
TAP	11	288	6
TAP	11	336	5
TAP	12	48	2
TAP	12	96	3
TAP	12	144	4
TAP	12	192	5
TAP	12	192	6
TAP	12	240	7
TAP	12	288	0
TAP	12	336	1
TAP	13	48	4
TAP	13	96	3
TAP	13	144	2
TAP	13	192	1
TAP	13	192	7
TAP	13	240	0
TAP	13	288	1
TAP	13	336	2
TAP	14	48	5
TAP	14	96	6
TAP	14	144	7
TAP	14	192	0
TAP	14	192	2
TAP	14	240	1
TAP	14	288	0
TAP	14	336	7
TAP	15	48	1
TAP	15	96	0
TAP	15	144	7
TAP	15	192	4
TAP	15	192	6
TAP	15	240	5
TAP	15	288	6
TAP	15	336	7
TAP	16	48	0
TAP	16	96	1
TAP	16	144	2
TAP	16	192	3
TAP	16	192	5
TAP	16	240	4
TAP	16	288	3
TAP	16	336	2
TAP	17	48	4
TAP	17	96	3
TAP	17	144	2
TAP	17	192	1
TAP	17	192	7
TAP	17	240	6
TAP	17	288	7
TAP	17	336	7
TAP	17	360	0
TAP	18	24	0
TAP	18	48	1
TAP	18	96	2
TAP	18	96	3
TAP	18	192	0
TAP	18	240	1
TAP	18	288	2
TAP	18	336	2
TAP	18	360	3
TAP	19	24	3
TAP	19	48	4
TAP	19	96	5
TAP	19	96	6
TAP	19	192	7
TAP	19	240	6
TAP	19	288	5
TAP	19	336	5
TAP	19	360	4
TAP	20	24	4
TAP	20	48	3
TAP	20	96	1
TAP	20	96	2
TAP	20	192	3
TAP	20	240	4
TAP	20	288	5
TAP	20	336	5
TAP	20	360	6
TAP	21	24	6
TAP	21	48	7
TAP	21	96	0
TAP	21	96	1
TAP	21	192	3
TAP	21	240	2
TAP	21	288	1
TAP	21	336	1
TAP	21	360	0
TAP	22	24	0
TAP	22	48	7
TAP	22	96	7
TAP	22	144	0
TAP	22	144	6
TAP	22	192	7
TAP	22	240	0
TAP	22	288	1
TAP	22	336	1
TAP	22	360	2
TAP	23	24	2
TAP	23	48	3
TAP	23	96	3
TAP	23	144	2
TAP	23	144	4
TAP	23	192	3
TAP	23	240	4
TAP	23	288	5
TAP	23	336	5
TAP	23	360	6
TAP	24	24	6
TAP	24	48	7
TAP	24	96	7
TAP	24	144	0
TAP	24	144	6
TAP	24	192	7
TAP	24	240	6
TAP	24	288	5
TAP	24	336	5
TAP	24	360	4
TAP	25	24	4
TAP	25	48	3
TAP	25	96	3
TAP	25	144	2
TAP	25	144	4
TAP	25	192	0
TAP	25	240	1
BRK	25	264	0
BRK	25	264	2
TAP	25	336	3
TAP	26	0	4
TAP	26	48	5
BRK	26	72	4
BRK	26	72	6
TAP	26	144	7
TAP	26	192	0
TAP	26	240	7
BRK	26	264	0
BRK	26	264	6
TAP	26	336	5
TAP	27	0	4
TAP	27	48	3
BRK	27	72	2
BRK	27	72	4
TAP	27	144	0
TAP	27	192	7
TAP	27	240	6
BRK	27	264	5
BRK	27	264	7
TAP	27	336	4
TAP	28	0	3
TAP	28	48	2
BRK	28	72	1
BRK	28	72	3
TAP	28	144	3
TAP	28	192	4
TAP	28	240	5
BRK	28	264	4
BRK	28	264	6
TAP	28	336	7
TAP	29	0	0
TAP	29	12	1
TAP	29	24	2
TAP	29	36	3
TAP	29	48	4
TAP	29	60	5
TAP	29	72	6
TAP	29	84	7
TAP	29	96	0
TAP	29	108	1
TAP	29	120	2
TAP	29	132	3
TAP	29	144	4
TAP	29	156	5
TAP	29	168	6
TAP	29	180	7
BRK	29	192	0
TAP	29	240	7
BRK	29	264	0
BRK	29	264	6
TAP	29	336	5
TAP	30	0	4
TAP	30	48	3
BRK	30	72	2
BRK	30	72	4
TAP	30	144	0
TAP	30	192	7
TAP	30	240	6
BRK	30	264	5
BRK	30	264	7
TAP	30	336	3
TAP	31	0	4
TAP	31	48	5
BRK	31	72	4
BRK	31	72	6
TAP	31	144	3
TAP	31	192	2
TAP	31	240	1
BRK	31	264	0
BRK	31	264	2
TAP	31	336	2
TAP	32	0	3
TAP	32	48	2
BRK	32	72	1
BRK	32	72	3
TAP	32	144	5
TAP	32	192	6
TAP	32	240	5
BRK	32	264	4
BRK	32	264	6
TAP	32	336	1
TAP	33	0	2
TAP	33	48	1
BRK	33	72	3
BRK	33	72	7
HLD	33	192	1	144
TAP	33	240	2
TAP	33	288	3
HLD	33	336	4	144
TAP	34	0	5
TAP	34	48	6
TAP	34	96	7
TAP	34	144	6
HLD	34	192	5	144
TAP	34	240	6
TAP	34	288	7
HLD	34	336	7	144
TAP	35	0	0
TAP	35	48	1
TAP	35	96	2
TAP	35	144	3
HLD	35	192	3	144
TAP	35	240	2
TAP	35	288	1
HLD	35	336	0	144
TAP	36	0	1
TAP	36	48	2
TAP	36	96	3
TAP	36	144	4
HLD	36	192	4	144
TAP	36	240	3
TAP	36	288	2
HLD	36	336	2	144
TAP	37	0	3
TAP	37	48	4
TAP	37	96	5
TAP	37	144	6
HLD	37	192	5	144
TAP	37	240	6
TAP	37	288	7
HLD	37	336	0	240
TAP	38	0	7
TAP	38	48	6
TAP	38	96	5
TAP	38	144	4
HLD	38	192	4	144
TAP	38	240	5
TAP	38	288	6
HLD	38	336	6	240
TAP	39	0	5
TAP	39	48	4
TAP	39	96	3
TAP	39	144	2
HLD	39	192	2	144
TAP	39	240	3
TAP	39	288	4
HLD	39	336	4	240
TAP	40	0	3
TAP	40	48	2
TAP	40	96	1
TAP	40	144	0
HLD	40	192	0	144
TAP	40	240	1
TAP	40	288	2
HLD	40	336	2	144
TAP	41	0	1
TAP	41	48	0
TAP	41	96	7
STR	41	192	0
SI_	41	192	0	96	48	4
TAP	41	240	7
TAP	41	288	6
STR	41	336	5
SI_	41	336	5	96	48	1
TAP	42	0	4
TAP	42	48	3
TAP	42	96	2
STR	42	192	1
SI_	42	192	1	96	48	5
TAP	42	240	2
TAP	42	288	3
STR	42	336	4
SI_	42	336	4	96	48	0
TAP	43	0	5
TAP	43	48	6
TAP	43	96	7
STR	43	192	7
SI_	43	192	7	96	48	3
TAP	43	240	6
TAP	43	288	5
STR	43	336	4
SI_	43	336	4	96	48	0
TAP	44	0	3
TAP	44	48	2
TAP	44	96	1
STR	44	192	2
SI_	44	192	2	96	48	6
TAP	44	240	3
TAP	44	288	4
STR	44	336	5
SI_	44	336	5	96	48	1
TAP	45	0	6
TAP	45	48	7
TAP	45	96	0
STR	45	192	7
SI_	45	192	7	96	48	3
TAP	45	240	6
TAP	45	288	5
STR	45	336	4
SI_	45	336	4	96	48	0
TAP	46	0	4
TAP	46	48	3
TAP	46	96	2
TAP	46	144	1
STR	46	192	0
SI_	46	192	0	96	48	4
TAP	46	240	7
TAP	46	288	6
STR	46	336	5
SI_	46	336	5	96	48	1
TAP	47	0	5
TAP	47	48	6
TAP	47	96	7
TAP	47	144	0
STR	47	192	1
SI_	47	192	1	96	48	5
TAP	47	240	2
TAP	47	288	3
STR	47	336	4
SI_	47	336	4	96	48	0
TAP	48	0	4
TAP	48	48	5
TAP	48	96	6
TAP	48	144	7
STR	48	192	0
SI_	48	192	0	96	48	4
TAP	48	240	1
TAP	48	288	2
STR	48	336	3
SI_	48	336	3	96	48	7
TAP	49	0	3
TAP	49	48	4
TAP	49	96	5
TAP	49	144	6
TAP	49	192	7
TAP	49	240	6
TAP	49	288	5
TAP	49	288	7
HLD	50	0	3	72
HLD	50	72	2	72
HLD	50	144	1	48
TAP	50	192	0
TAP	50	240	1
TAP	50	288	0
TAP	50	288	2
HLD	51	0	7	72
HLD	51	72	6	72
HLD	51	144	5	48
TAP	51	192	4
TAP	51	240	5
TAP	51	288	4
TAP	51	288	6
HLD	52	0	0	72
HLD	52	72	1	72
HLD	52	144	2	48
TAP	52	192	3
TAP	52	240	2
TAP	52	288	1
TAP	52	288	3
HLD	53	0	4	72
HLD	53	72	5	72
HLD	53	144	6	48
TAP	53	192	7
TAP	53	240	5
STR	53	288	2
SI_	53	288	2	96	48	7
TAP	53	288	4
TAP	54	0	0
TAP	54	72	6
TAP	54	144	4
TAP	54	192	0
TAP	54	240	2
TAP	54	288	3
STR	54	288	5
SI_	54	288	5	96	48	0
TAP	55	0	7
TAP	55	72	1
TAP	55	144	3
STR	55	192	1
SI_	55	192	1	96	48	5
TAP	55	240	1
STR	56	0	7
SI_	56	0	7	96	48	3
TAP	56	72	7
TAP	56	144	7
STR	56	192	0
SI_	56	192	0	96	48	4
TAP	56	240	0
STR	57	0	6
SI_	57	0	6	96	48	2
TAP	57	72	6
TAP	57	144	6
STR	57	192	0
SI_	57	192	0	96	48	5
STR	57	288	7
SI_	57	288	7	96	48	2
STR	58	0	1
SI_	58	0	1	96	48	4
STR	58	96	6
SI_	58	96	6	96	48	3
STR	58	192	0
SI_	58	192	0	96	48	4
STR	58	288	7
SI_	58	288	7	96	48	3
STR	59	0	0
SCL	59	0	0	96	48	5
STR	59	96	0
SCR	59	96	0	96	48	3
STR	60	96	4
SI_	60	96	4	96	24	0

T_REC_TAP	327
T_REC_BRK	32
T_REC_XTP	0
T_REC_HLD	28
T_REC_XHO	0
T_REC_STR	48
T_REC_BST	0
T_REC_XST	0
T_REC_TTP	0
T_REC_THO	0
T_REC_SLD	48
T_REC_ALL	483
T_NUM_TAP	375
T_NUM_BRK	32
T_NUM_HLD	28
T_NUM_SLD	48
T_NUM_ALL	483
T_JUDGE_TAP	407
T_JUDGE_HLD	74
T_JUDGE_SLD	48
T_JUDGE_ALL	529
TTM_EACHPAIRS	38
TTM_SCR_TAP	187500
TTM_SCR_BRK	83200
TTM_SCR_HLD	28000
TTM_SCR_SLD	72000
TTM_SCR_ALL	370700
TTM_SCR_S	356500
TTM_SCR_SS	367500
TTM_RAT_ACV	10087

