VERSION	0.00.00	1.03.00
FES_MODE	0
BPM_DEF	160.000	160.000	160.000	160.000
MET_DEF	4	4
RESOLUTION	384
CLK_DEF	384
COMPATIBLE_CODE	MA2

BPM	0	0	160.000
MET	0	0	4	4

HLD	1	0	0	144
HLD	1	144	2	240
HLD	2	0	4	144
HLD	2	144	6	144
TAP	2	288	5
TAP	2	336	6
HLD	3	0	7	144
HLD	3	144	5	240
HLD	4	0	3	144
HLD	4	144	1	144
TAP	4	288	2
TAP	4	336	1
HLD	5	0	3	144
HLD	5	144	1	240
HLD	6	0	7	144
HLD	6	144	5	144
TAP	6	288	6
TAP	6	336	5
HLD	7	0	4	144
HLD	7	144	6	240
HLD	8	0	0	192
HLD	8	192	2	72
HLD	8	264	1	72
BRK	8	336	0
TAP	9	192	6
TAP	9	288	4
TAP	9	288	5
TAP	10	0	1
TAP	10	96	2
TAP	10	96	3
TAP	10	192	6
TAP	10	288	4
TAP	10	288	5
TAP	11	0	1
TAP	11	96	2
TAP	11	96	3
TAP	11	192	7
TAP	11	288	4
TAP	11	288	5
TAP	12	0	0
TAP	12	96	2
TAP	12	96	3
TAP	12	192	7
TAP	12	288	4
TAP	12	288	5
TAP	13	0	0
TAP	13	48	1
TAP	13	96	2
TAP	13	96	3
TAP	13	192	7
TAP	13	288	5
TAP	13	288	6
TAP	14	0	0
TAP	14	96	1
TAP	14	96	2
TAP	14	192	7
TAP	14	288	5
TAP	14	288	6
TAP	15	0	0
TAP	15	96	1
TAP	15	96	2
TAP	15	192	7
TAP	15	288	4
TAP	15	288	6
TAP	16	0	0
TAP	16	96	1
TAP	16	96	3
TAP	16	192	7
TAP	16	288	4
TAP	16	288	6
TAP	17	0	7
TAP	17	48	0
TAP	17	96	1
TAP	17	96	3
TAP	17	192	0
TAP	17	240	7
TAP	17	288	6
TAP	17	336	5
TAP	18	0	6
TAP	18	48	7
HLD	18	96	0	96
TAP	18	192	7
TAP	18	240	0
TAP	18	288	1
TAP	18	336	2
TAP	19	0	1
TAP	19	48	0
HLD	19	96	7	96
TAP	19	192	4
TAP	19	240	3
TAP	19	288	2
TAP	19	336	1
TAP	20	0	2
TAP	20	48	3
HLD	20	96	4	96
TAP	20	192	3
TAP	20	240	4
TAP	20	288	5
TAP	20	336	6
TAP	21	0	5
TAP	21	48	4
TAP	21	96	2
TAP	21	96	3
TAP	21	192	2
TAP	21	192	7
TAP	21	240	1
TAP	21	288	0
TAP	21	336	1
TAP	22	0	0
TAP	22	48	7
TAP	22	96	6
TAP	22	192	0
TAP	22	192	5
TAP	22	240	6
TAP	22	288	7
TAP	22	336	6
TAP	23	0	7
TAP	23	48	0
TAP	23	96	1
TAP	23	192	1
TAP	23	192	4
TAP	23	240	2
TAP	23	288	3
TAP	23	336	2
TAP	24	0	3
TAP	24	48	4
TAP	24	96	5
TAP	24	192	3
TAP	24	192	6
TAP	24	240	5
TAP	24	288	4
TAP	24	336	5
TAP	25	0	4
TAP	25	48	3
BRK	25	96	2
TAP	25	192	1
TAP	25	192	3
HLD	25	264	6	72
HLD	25	264	7	72
TAP	26	0	4
TAP	26	0	6
HLD	26	72	0	72
HLD	26	72	1	72
TAP	26	192	1
TAP	26	192	3
HLD	26	264	6	72
HLD	26	264	7	72
STR	27	0	4
SI_	27	0	4	96	48	1
STR	27	0	6
SCR	27	0	6	96	48	1
TAP	27	192	3
TAP	27	192	6
HLD	27	264	0	72
HLD	27	264	1	72
TAP	28	0	1
TAP	28	0	4
HLD	28	72	6	72
HLD	28	72	7	72
TAP	28	192	3
TAP	28	192	6
HLD	28	264	0	72
HLD	28	264	1	72
STR	29	0	3
SCL	29	0	3	96	48	0
STR	29	0	6
SCL	29	0	6	96	48	3
TAP	29	192	4
TAP	29	192	6
TAP	29	264	0
TAP	29	264	1
TAP	29	336	2
TAP	30	0	1
TAP	30	0	3
TAP	30	72	6
TAP	30	72	7
TAP	30	144	5
TAP	30	192	4
TAP	30	192	6
TAP	30	264	0
TAP	30	264	1
TAP	30	336	2
STR	31	0	1
SCL	31	0	1	96	48	6
STR	31	0	3
SI_	31	0	3	96	48	6
TAP	31	192	1
TAP	31	192	4
TAP	31	264	6
TAP	31	264	7
TAP	31	336	5
TAP	32	0	3
TAP	32	0	6
TAP	32	72	0
TAP	32	72	1
TAP	32	144	2
TAP	32	192	1
TAP	32	192	4
TAP	32	264	6
TAP	32	264	7
TAP	32	336	5
STR	33	0	1
SCR	33	0	1	96	48	4
STR	33	0	4
SCR	33	0	4	96	48	7
TAP	33	192	5
TAP	33	288	3
TAP	33	360	3
TAP	34	0	4
TAP	34	48	2
TAP	34	96	0
TAP	34	96	1
TAP	34	192	6
TAP	34	240	7
TAP	34	288	6
TAP	34	288	7
TAP	35	0	1
TAP	35	48	0
TAP	35	96	0
TAP	35	96	1
TAP	35	192	0
TAP	35	288	6
TAP	35	360	6
TAP	36	0	7
TAP	36	48	5
TAP	36	96	4
TAP	36	96	5
TAP	36	192	2
TAP	36	240	3
TAP	36	288	2
TAP	36	288	3
TAP	37	0	5
TAP	37	48	4
TAP	37	96	4
TAP	37	96	5
TAP	37	192	2
TAP	37	288	4
TAP	37	360	4
TAP	38	0	3
TAP	38	48	5
TAP	38	96	4
TAP	38	96	5
HLD	38	192	5	48
HLD	38	240	4	48
HLD	38	288	3	48
HLD	38	336	2	48
HLD	39	0	3	48
HLD	39	48	2	48
HLD	39	96	1	48
HLD	39	144	2	48
HLD	39	192	1	72
HLD	39	264	0	72
TAP	39	336	7
HLD	40	0	6	72
HLD	40	72	7	72
TAP	40	144	0
STR	40	192	7
SI_	40	192	7	96	48	3
STR	41	0	4
SI_	41	0	4	96	48	0
TAP	41	192	3
TAP	41	288	5
TAP	41	360	5
TAP	42	0	7
TAP	42	48	6
TAP	42	96	6
TAP	42	96	7
TAP	42	192	0
TAP	42	240	7
TAP	42	288	0
TAP	42	288	7
TAP	43	0	0
TAP	43	48	1
TAP	43	96	0
TAP	43	96	1
TAP	43	192	3
TAP	43	288	2
TAP	43	360	2
TAP	44	0	0
TAP	44	48	1
TAP	44	96	0
TAP	44	96	1
TAP	44	192	7
TAP	44	240	0
TAP	44	288	0
TAP	44	288	7
TAP	45	0	7
TAP	45	48	6
TAP	45	96	6
TAP	45	96	7
TAP	45	192	0
TAP	45	288	2
TAP	45	360	2
TAP	46	0	4
TAP	46	48	5
TAP	46	96	5
TAP	46	96	6
TAP	46	192	0
TAP	46	240	1
TAP	46	288	0
TAP	46	288	1
TAP	47	0	2
TAP	47	48	3
TAP	47	96	2
TAP	47	96	3
TAP	47	192	4
TAP	47	288	6
TAP	47	288	7
TAP	47	360	7
TAP	48	0	0
TAP	48	48	2
TAP	48	96	4
TAP	48	96	5
TAP	48	192	6
TAP	48	224	6
TAP	48	256	6
TAP	48	288	0
TAP	48	320	0
TAP	48	352	0
TAP	49	0	7
TAP	49	32	7
TAP	49	64	7
BRK	49	96	1
STR	49	192	3
SI_	49	192	3	96	48	6
TAP	49	240	3
TAP	50	0	7
TAP	50	72	6
TAP	50	144	5
STR	50	192	4
SI_	50	192	4	96	48	1
TAP	50	240	4
TAP	51	0	0
TAP	51	72	1
TAP	51	144	2
STR	51	192	3
SI_	51	192	3	96	48	6
TAP	51	240	3
TAP	52	0	7
TAP	52	72	6
TAP	52	144	5
STR	52	192	4
SI_	52	192	4	96	48	1
TAP	52	240	4
TAP	53	0	0
TAP	53	72	1
TAP	53	144	2
STR	53	192	3
SI_	53	192	3	96	48	6
TAP	53	240	3
HLD	54	0	7	72
HLD	54	72	6	72
HLD	54	144	5	48
STR	54	192	4
SI_	54	192	4	96	48	1
TAP	54	240	4
HLD	55	0	0	72
HLD	55	72	1	72
HLD	55	144	2	48
STR	55	192	3
SI_	55	192	3	96	48	6
TAP	55	240	3
HLD	56	0	7	72
HLD	56	72	6	72
HLD	56	144	5	48
STR	56	192	4
SI_	56	192	4	96	48	1
TAP	56	240	4
TAP	57	0	0
HLD	57	48	0	96
TAP	57	192	0
TAP	57	192	5
TAP	57	288	2
TAP	57	288	7
TAP	58	0	1
TAP	58	0	4
TAP	58	96	3
TAP	58	96	6
STR	58	192	0
SI_	58	192	0	96	48	5
STR	58	288	7
SI_	58	288	7	96	48	2
STR	59	0	1
SI_	59	0	1	96	48	4
STR	59	96	6
SI_	59	96	6	96	48	3
BRK	59	192	0
STR	59	288	0
SCL	59	288	0	96	96	5
BRK	60	192	7

T_REC_TAP	285
T_REC_BRK	5
T_REC_XTP	0
T_REC_HLD	54
T_REC_XHO	0
T_REC_STR	23
T_REC_BST	0
T_REC_XST	0
T_REC_TTP	0
T_REC_THO	0
T_REC_SLD	23
T_REC_ALL	390
T_NUM_TAP	308
T_NUM_BRK	5
T_NUM_HLD	54
T_NUM_SLD	23
T_NUM_ALL	390
T_JUDGE_TAP	313
T_JUDGE_HLD	121
T_JUDGE_SLD	23
T_JUDGE_ALL	457
TTM_EACHPAIRS	71
TTM_SCR_TAP	154000
TTM_SCR_BRK	13000
TTM_SCR_HLD	54000
TTM_SCR_SLD	34500
TTM_SCR_ALL	255500
TTM_SCR_S	247350
TTM_SCR_SS	255000
TTM_RAT_ACV	10019

