VERSION	0.00.00	1.03.00
FES_MODE	0
BPM_DEF	160.000	160.000	160.000	160.000
MET_DEF	4	4
RESOLUTION	384
CLK_DEF	384
COMPATIBLE_CODE	MA2

BPM	0	0	160.000
MET	0	0	4	4

TAP	1	0	1
TAP	2	0	2
TAP	3	0	3
TAP	4	0	4
HLD	5	0	1	144
HLD	5	144	0	144
HLD	6	0	7	144
HLD	6	144	6	144
HLD	7	0	1	144
HLD	7	144	2	144
HLD	8	0	4	384
BRK	9	0	7
TAP	9	192	7
TAP	9	288	7
TAP	10	0	7
TAP	10	192	2
TAP	10	288	2
TAP	11	0	2
TAP	11	192	6
TAP	11	288	6
TAP	12	0	6
TAP	12	192	3
TAP	12	288	3
TAP	13	0	3
TAP	13	192	5
TAP	13	288	5
TAP	14	0	5
TAP	14	96	4
TAP	14	192	3
TAP	14	288	3
TAP	15	0	3
TAP	15	96	1
TAP	15	192	0
TAP	15	288	0
TAP	16	0	0
TAP	16	96	7
BRK	16	192	7
TAP	17	192	0
TAP	17	288	0
TAP	18	0	1
TAP	18	96	2
TAP	18	96	3
TAP	18	192	0
TAP	18	288	0
TAP	19	0	7
TAP	19	96	5
TAP	19	96	6
TAP	19	192	1
TAP	19	288	1
TAP	20	0	2
TAP	20	96	3
TAP	20	96	4
TAP	20	192	2
TAP	20	288	1
TAP	21	0	0
TAP	21	96	6
TAP	21	96	7
HLD	21	192	5	96
TAP	21	288	4
HLD	21	336	4	144
HLD	22	192	3	96
TAP	22	288	2
HLD	22	336	2	144
HLD	23	192	5	96
TAP	23	288	6
HLD	23	336	6	144
STR	24	192	7
SI_	24	192	7	96	192	4
TAP	25	192	2
TAP	25	264	2
TAP	26	0	3
TAP	26	72	3
TAP	26	192	4
HLD	26	264	4	120
TAP	27	192	1
TAP	27	264	1
TAP	28	0	0
TAP	28	72	0
TAP	28	192	7
HLD	28	264	7	120
TAP	29	192	0
TAP	29	264	0
TAP	30	0	1
TAP	30	72	1
TAP	30	192	2
HLD	30	264	2	120
TAP	31	192	4
TAP	31	264	4
TAP	32	0	2
TAP	32	72	2
TAP	32	192	6
TAP	32	264	6
TAP	33	0	0
BRK	33	72	0
TAP	33	192	2
TAP	33	288	2
TAP	34	0	1
TAP	34	96	0
TAP	34	192	7
TAP	34	288	7
TAP	35	0	6
TAP	35	96	5
TAP	35	192	3
TAP	35	288	3
TAP	36	0	5
TAP	36	96	5
TAP	36	192	1
TAP	36	288	1
TAP	37	0	7
TAP	37	96	7
STR	37	192	0
SI_	37	192	0	96	96	4
STR	38	192	6
SI_	38	192	6	96	96	2
HLD	39	192	3	144
TAP	39	336	4
HLD	40	0	4	144
TAP	40	144	5
HLD	40	192	5	288
TAP	41	192	6
TAP	41	288	5
TAP	42	0	4
TAP	42	96	3
TAP	42	192	2
TAP	42	288	1
TAP	43	0	0
TAP	43	96	7
TAP	43	192	0
TAP	43	288	1
TAP	44	0	2
TAP	44	96	3
TAP	44	192	4
TAP	44	288	5
TAP	45	0	6
TAP	45	96	7
HLD	45	192	0	144
HLD	45	336	1	385
HLD	46	336	0	240
TAP	47	192	7
TAP	47	288	7
TAP	48	0	6
TAP	48	96	6
BRK	48	192	5
TAP	49	192	7
TAP	49	240	7
HLD	50	0	1	192
TAP	50	192	2
TAP	50	240	2
HLD	51	0	0	192
TAP	51	192	7
TAP	51	240	7
HLD	52	0	5	192
TAP	52	192	4
TAP	52	240	4
HLD	53	0	2	192
STR	53	192	0
SI_	53	192	0	96	96	4
STR	54	192	1
SI_	54	192	1	96	96	5
HLD	55	192	6	384
HLD	56	192	1	288
BRK	57	96	7
HLD	57	192	5	96
TAP	57	288	4
HLD	57	336	4	144
HLD	58	192	6	96
TAP	58	288	0
HLD	58	336	0	240
HLD	59	192	2	384
STR	60	192	3
SI_	60	192	3	96	96	7

T_REC_TAP	121
T_REC_BRK	5
T_REC_XTP	0
T_REC_HLD	33
T_REC_XHO	0
T_REC_STR	6
T_REC_BST	0
T_REC_XST	0
T_REC_TTP	0
T_REC_THO	0
T_REC_SLD	6
T_REC_ALL	171
T_NUM_TAP	127
T_NUM_BRK	5
T_NUM_HLD	33
T_NUM_SLD	6
T_NUM_ALL	171
T_JUDGE_TAP	132
T_JUDGE_HLD	129
T_JUDGE_SLD	6
T_JUDGE_ALL	267
TTM_EACHPAIRS	4
TTM_SCR_TAP	63500
TTM_SCR_BRK	13000
TTM_SCR_HLD	33000
TTM_SCR_SLD	9000
TTM_SCR_ALL	118500
TTM_SCR_S	114500
TTM_SCR_SS	118000
TTM_RAT_ACV	10042

