VERSION	0.00.00	1.03.00
FES_MODE	0
BPM_DEF	160.000	160.000	160.000	160.000
MET_DEF	4	4
RESOLUTION	384
CLK_DEF	384
COMPATIBLE_CODE	MA2

BPM	0	0	160.000
MET	0	0	4	4

HLD	1	0	4	384
HLD	3	0	5	384
HLD	5	0	3	384
HLD	7	0	2	384
TAP	9	192	1
TAP	10	0	1
TAP	10	192	1
TAP	11	192	0
TAP	12	0	0
HLD	12	192	0	192
TAP	13	192	7
TAP	14	0	7
TAP	14	192	7
TAP	15	192	6
TAP	16	0	6
HLD	16	192	6	192
HLD	17	192	7	384
TAP	19	0	7
HLD	19	192	6	384
TAP	21	0	6
HLD	21	192	0	384
TAP	23	0	0
HLD	23	192	1	384
TAP	25	0	1
TAP	25	192	1
STR	26	0	1
SI_	26	0	1	96	288	5
TAP	27	192	6
STR	28	0	6
SI_	28	0	6	96	288	2
TAP	29	192	1
TAP	30	0	0
TAP	30	0	1
TAP	30	192	0
TAP	31	0	0
TAP	31	0	7
TAP	31	192	7
TAP	32	0	6
TAP	32	0	7
TAP	32	192	0
TAP	32	192	7
BRK	33	0	0
BRK	33	0	7
TAP	33	192	1
TAP	34	0	1
TAP	34	192	0
TAP	35	0	0
STR	35	192	0
SI_	35	192	0	96	288	3
TAP	37	192	6
TAP	38	0	6
TAP	38	192	7
TAP	39	0	7
STR	39	192	7
SI_	39	192	7	96	288	4
TAP	41	192	3
TAP	42	0	2
HLD	42	192	1	192
TAP	43	192	0
TAP	44	0	7
HLD	44	192	6	192
TAP	45	192	5
TAP	46	0	4
TAP	46	192	3
TAP	47	0	2
TAP	47	192	0
TAP	47	192	1
TAP	48	192	0
TAP	48	192	7
TAP	49	192	1
TAP	49	288	1
TAP	50	192	1
TAP	50	288	1
TAP	51	192	6
TAP	51	288	6
TAP	52	192	6
TAP	52	288	6
TAP	53	192	0
TAP	53	288	0
TAP	54	192	0
BRK	54	288	0
TAP	55	192	7
TAP	55	288	7
TAP	56	192	7
BRK	56	288	7
TAP	57	192	6
TAP	58	0	5
TAP	58	192	4
TAP	59	0	3
TAP	59	192	3
TAP	59	192	4
TAP	60	192	2
TAP	60	192	5

T_REC_TAP	69
T_REC_BRK	4
T_REC_XTP	0
T_REC_HLD	12
T_REC_XHO	0
T_REC_STR	4
T_REC_BST	0
T_REC_XST	0
T_REC_TTP	0
T_REC_THO	0
T_REC_SLD	4
T_REC_ALL	93
T_NUM_TAP	73
T_NUM_BRK	4
T_NUM_HLD	12
T_NUM_SLD	4
T_NUM_ALL	93
T_JUDGE_TAP	77
T_JUDGE_HLD	80
T_JUDGE_SLD	4
T_JUDGE_ALL	161
TTM_EACHPAIRS	9
TTM_SCR_TAP	36500
TTM_SCR_BRK	10400
TTM_SCR_HLD	12000
TTM_SCR_SLD	6000
TTM_SCR_ALL	64900
TTM_SCR_S	62600
TTM_SCR_SS	64500
TTM_RAT_ACV	10062

