VERSION	0.00.00	1.03.00
FES_MODE	0
BPM_DEF	143.000	143.000	143.000	143.000
MET_DEF	4	4
RESOLUTION	384
CLK_DEF	384
COMPATIBLE_CODE	MA2

BPM	0	0	143.000
MET	0	0	4	4

HLD	1	0	2	72
HLD	1	72	4	72
TAP	1	144	5
HLD	1	192	5	72
HLD	1	264	3	72
TAP	1	336	2
TAP	2	0	0
TAP	2	0	1
TAP	2	72	0
TAP	2	72	7
HLD	2	120	0	48
HLD	2	120	7	48
TAP	2	192	2
TAP	2	192	3
TAP	2	264	4
TAP	2	264	5
TAP	2	312	6
TAP	2	312	7
STR	3	0	0
SI_	3	0	0	96	48	4
STR	3	192	7
SI_	3	192	7	96	48	3
STR	4	0	6
SI_	4	0	6	96	48	2
STR	4	192	5
SI_	4	192	5	96	48	1
HLD	5	0	2	72
TAP	5	72	3
TAP	5	96	4
TAP	5	144	4
HLD	5	192	1	72
TAP	5	264	0
TAP	5	288	7
TAP	5	336	7
HLD	6	0	6	72
TAP	6	72	5
TAP	6	96	4
TAP	6	144	5
TAP	6	192	7
TAP	6	216	7
TAP	6	264	0
TAP	6	288	0
TAP	6	336	1
STR	7	0	2
SI_	7	0	2	96	48	6
STR	7	192	0
SI_	7	192	0	96	48	4
STR	8	0	5
SI_	8	0	5	96	48	1
STR	8	192	3
SI_	8	192	3	96	48	7
HLD	9	0	6	72
TAP	9	72	5
TAP	9	96	4
TAP	9	144	4
HLD	9	192	7	72
TAP	9	264	0
TAP	9	288	1
TAP	9	336	1
HLD	10	0	3	72
TAP	10	72	4
TAP	10	96	5
TAP	10	144	4
TAP	10	192	2
TAP	10	216	2
TAP	10	264	0
TAP	10	288	0
TAP	10	336	2
STR	11	0	4
SI_	11	0	4	96	48	0
TAP	11	72	4
TAP	11	144	1
STR	11	192	2
SI_	11	192	2	96	48	6
TAP	11	264	2
HLD	11	336	5	120
TAP	12	72	4
TAP	12	120	2
TAP	12	120	3
TAP	12	168	0
TAP	12	168	1
HLD	12	240	7	96
TAP	12	336	6
HLD	13	0	0	72
TAP	13	72	1
TAP	13	96	2
TAP	13	144	2
HLD	13	192	0	72
TAP	13	264	7
TAP	13	288	6
TAP	13	336	6
HLD	14	0	5	72
TAP	14	72	4
TAP	14	96	3
TAP	14	144	4
TAP	14	192	6
TAP	14	216	6
TAP	14	264	0
TAP	14	288	0
TAP	14	336	2
STR	15	0	2
SI_	15	0	2	96	48	7
TAP	15	72	2
TAP	15	144	6
STR	15	192	5
SI_	15	192	5	96	48	0
TAP	15	264	5
HLD	15	336	1	96
TAP	16	48	2
TAP	16	120	3
TAP	16	120	4
TAP	16	192	5
TAP	16	192	6
HLD	16	240	7	96
TAP	16	336	0
STR	17	0	1
SI_	17	0	1	96	48	5
STR	17	144	2
SI_	17	144	2	96	48	6
STR	17	288	3
SI_	17	288	3	96	48	7
STR	18	0	0
SI_	18	0	0	96	48	4
STR	18	144	6
SI_	18	144	6	96	47	2
BRK	18	240	7
BRK	18	312	0
HLD	19	0	1	192
TAP	19	192	2
TAP	19	264	7
HLD	19	336	6	144
TAP	20	0	5
TAP	20	48	4
HLD	20	96	3	144
TAP	20	192	5
TAP	20	240	5
TAP	20	288	7
TAP	20	312	7
TAP	20	360	1
HLD	21	0	1	72
HLD	21	72	3	72
TAP	21	144	5
HLD	21	192	5	72
HLD	21	264	3	72
TAP	21	336	1
HLD	22	0	2	72
HLD	22	72	4	72
BRK	22	144	6
HLD	22	192	4	72
HLD	22	264	2	72
BRK	22	336	0
HLD	23	0	1	72
TAP	23	72	2
TAP	23	96	2
TAP	23	144	4
HLD	23	192	3	72
TAP	23	264	2
TAP	23	288	2
TAP	23	336	0
HLD	24	0	1	72
TAP	24	72	2
TAP	24	96	2
TAP	24	144	4
HLD	24	192	5	72
TAP	24	264	4
TAP	24	288	4
TAP	24	336	2
STR	25	0	1
SI_	25	0	1	96	48	4
TAP	25	72	1
TAP	25	144	5
STR	25	192	3
SI_	25	192	3	96	48	6
TAP	25	264	3
TAP	25	336	7
STR	26	0	5
SI_	26	0	5	96	48	0
TAP	26	72	5
BRK	26	144	1
STR	26	192	7
SI_	26	192	7	96	48	2
TAP	26	264	7
BRK	26	336	3
HLD	27	0	5	72
HLD	27	72	3	72
TAP	27	144	1
HLD	27	192	2	72
HLD	27	264	4	72
TAP	27	336	6
HLD	28	0	2	72
HLD	28	72	0	72
TAP	28	144	6
HLD	28	192	7	72
HLD	28	264	1	72
TAP	28	336	3
STR	29	0	4
SI_	29	0	4	96	192	0
STR	29	192	1
SI_	29	192	1	96	192	5
STR	30	0	7
SI_	30	0	7	96	192	3
HLD	30	192	2	192
HLD	31	0	4	72
HLD	31	72	6	72
TAP	31	144	7
HLD	31	192	5	72
HLD	31	264	3	72
TAP	31	336	2
HLD	32	0	1	72
HLD	32	72	3	72
TAP	32	144	4
HLD	32	192	2	72
HLD	32	264	0	72
TAP	32	336	6
HLD	33	0	0	72
TAP	33	72	1
TAP	33	96	2
TAP	33	144	2
HLD	33	192	0	72
TAP	33	264	7
TAP	33	288	6
TAP	33	336	6
HLD	34	0	4	72
TAP	34	72	2
TAP	34	96	2
BRK	34	144	0
HLD	34	192	2	72
TAP	34	264	4
TAP	34	288	4
BRK	34	336	6
HLD	35	0	6	672
TAP	37	0	6
TAP	37	48	5
TAP	37	96	4
TAP	37	144	3
TAP	37	192	1
TAP	37	192	2
TAP	37	264	0
TAP	37	264	7
BRK	37	336	6
BRK	37	336	7
TAP	38	0	0
TAP	38	48	1
TAP	38	96	2
TAP	38	144	3
TAP	38	192	4
TAP	38	192	5
TAP	38	264	2
TAP	38	264	3
BRK	38	336	0
BRK	38	336	1
HLD	39	0	7	288
TAP	40	0	6
TAP	40	0	7
BRK	40	72	1
BRK	40	72	7
HLD	40	120	0	48
HLD	40	120	6	48
TAP	40	192	0
TAP	40	192	7
BRK	40	288	0
BRK	40	288	1
STR	41	0	0
SI_	41	0	0	96	48	4
STR	41	192	7
SI_	41	192	7	96	48	3
STR	42	0	6
SI_	42	0	6	96	48	2
STR	42	192	5
SI_	42	192	5	96	48	1
HLD	43	0	2	72
TAP	43	72	3
TAP	43	96	4
TAP	43	144	4
HLD	43	192	1	72
TAP	43	264	0
TAP	43	288	7
TAP	43	336	7
HLD	44	0	6	72
TAP	44	72	5
TAP	44	96	4
TAP	44	144	5
TAP	44	192	7
TAP	44	216	7
TAP	44	264	0
TAP	44	288	0
TAP	44	336	1
STR	45	0	2
SI_	45	0	2	96	48	6
STR	45	192	0
SI_	45	192	0	96	48	4
STR	46	0	5
SI_	46	0	5	96	48	1
STR	46	192	3
SI_	46	192	3	96	48	7
HLD	47	0	6	72
TAP	47	72	5
TAP	47	96	4
TAP	47	144	4
HLD	47	192	7	72
TAP	47	264	0
TAP	47	288	1
TAP	47	336	1
HLD	48	0	3	72
TAP	48	72	4
TAP	48	96	5
TAP	48	144	4
TAP	48	192	2
TAP	48	216	2
TAP	48	264	0
TAP	48	288	0
TAP	48	336	2
STR	49	0	4
SI_	49	0	4	96	48	0
TAP	49	72	4
TAP	49	144	1
STR	49	192	2
SI_	49	192	2	96	48	6
TAP	49	264	2
HLD	49	336	5	120
TAP	50	72	4
TAP	50	120	2
TAP	50	120	3
TAP	50	168	0
TAP	50	168	1
HLD	50	240	7	96
TAP	50	336	6
HLD	51	0	0	72
TAP	51	72	1
TAP	51	96	2
TAP	51	144	2
HLD	51	192	0	72
TAP	51	264	7
TAP	51	288	6
TAP	51	336	6
HLD	52	0	5	72
TAP	52	72	4
TAP	52	96	3
TAP	52	144	4
TAP	52	192	6
TAP	52	216	6
TAP	52	264	0
TAP	52	288	0
TAP	52	336	2
STR	53	0	2
SI_	53	0	2	96	48	7
TAP	53	72	2
TAP	53	144	6
STR	53	192	5
SI_	53	192	5	96	48	0
TAP	53	264	5
HLD	53	336	1	96
TAP	54	48	2
TAP	54	120	3
TAP	54	120	4
TAP	54	192	5
TAP	54	192	6
HLD	54	240	7	96
TAP	54	336	0
STR	55	0	1
SI_	55	0	1	96	48	5
STR	55	144	2
SI_	55	144	2	96	48	6
STR	55	288	3
SI_	55	288	3	96	48	7
STR	56	0	0
SI_	56	0	0	96	48	4
STR	56	144	6
SI_	56	144	6	96	47	2
BRK	56	240	7
BRK	56	312	0
STR	57	0	6
SCR	57	0	6	96	48	1
TAP	57	48	5
TAP	57	96	4
TAP	57	144	3
TAP	57	192	1
TAP	57	192	2
TAP	57	264	0
TAP	57	264	7
TAP	57	336	6
TAP	57	336	7
STR	58	0	0
SCL	58	0	0	96	48	5
TAP	58	48	1
TAP	58	96	2
TAP	58	144	3
TAP	58	192	4
TAP	58	192	5
TAP	58	264	2
TAP	58	264	3
TAP	58	336	0
TAP	58	336	1
STR	59	0	1
SCL	59	0	1	96	48	6
TAP	59	48	2
TAP	59	96	3
TAP	59	144	4
TAP	59	192	5
TAP	59	192	6
TAP	59	264	0
TAP	59	264	7
TAP	59	336	0
TAP	59	336	1
STR	60	0	7
SCR	60	0	7	96	48	2
TAP	60	48	6
TAP	60	96	5
TAP	60	144	4
TAP	60	192	2
TAP	60	192	3
TAP	60	264	4
TAP	60	264	5
TAP	60	336	6
TAP	60	336	7
HLD	61	0	0	288
TAP	62	0	2
TAP	62	0	3
BRK	62	72	0
BRK	62	72	4
HLD	62	120	1	48
HLD	62	120	5	48
TAP	62	192	3
TAP	62	192	7
BRK	62	288	2
BRK	62	288	6
BRK	63	0	0
BRK	63	0	4

T_REC_TAP	239
T_REC_BRK	24
T_REC_XTP	0
T_REC_HLD	75
T_REC_XHO	0
T_REC_STR	45
T_REC_BST	0
T_REC_XST	0
T_REC_TTP	0
T_REC_THO	0
T_REC_SLD	45
T_REC_ALL	428
T_NUM_TAP	284
T_NUM_BRK	24
T_NUM_HLD	75
T_NUM_SLD	45
T_NUM_ALL	428
T_JUDGE_TAP	308
T_JUDGE_HLD	172
T_JUDGE_SLD	45
T_JUDGE_ALL	525
TTM_EACHPAIRS	43
TTM_SCR_TAP	142000
TTM_SCR_BRK	62400
TTM_SCR_HLD	75000
TTM_SCR_SLD	67500
TTM_SCR_ALL	346900
TTM_SCR_S	334200
TTM_SCR_SS	344500
TTM_RAT_ACV	10069

