VERSION	0.00.00	1.03.00
FES_MODE	0
BPM_DEF	143.000	143.000	143.000	143.000
MET_DEF	4	4
RESOLUTION	384
CLK_DEF	384
COMPATIBLE_CODE	MA2

BPM	0	0	143.000
MET	0	0	4	4

HLD	1	0	7	72
HLD	1	72	6	72
TAP	1	144	5
HLD	1	192	0	72
HLD	1	264	1	72
TAP	1	336	2
HLD	2	0	4	120
TAP	2	72	5
TAP	2	120	5
HLD	2	192	3	120
TAP	2	264	2
TAP	2	312	2
HLD	3	0	4	72
HLD	3	192	2	72
HLD	4	0	0	72
HLD	4	192	6	72
HLD	5	0	3	72
HLD	5	192	5	72
HLD	6	0	7	72
HLD	6	192	1	72
HLD	7	0	4	72
TAP	7	72	5
HLD	7	192	2	72
TAP	7	264	3
HLD	8	0	0	72
TAP	8	72	1
HLD	8	192	6	72
TAP	8	264	7
HLD	9	0	3	72
TAP	9	72	2
HLD	9	192	5	72
TAP	9	264	4
HLD	10	0	7	72
TAP	10	72	6
HLD	10	192	1	74
TAP	10	264	0
TAP	11	0	5
TAP	11	0	7
TAP	11	72	4
HLD	11	192	1	144
TAP	11	264	2
TAP	11	336	3
TAP	12	0	0
TAP	12	0	2
TAP	12	72	3
HLD	12	192	6	144
TAP	12	264	5
TAP	12	336	4
TAP	13	0	5
TAP	13	0	7
TAP	13	72	4
HLD	13	192	1	144
TAP	13	264	2
TAP	13	336	3
TAP	14	0	0
TAP	14	0	2
TAP	14	72	3
HLD	14	192	6	144
TAP	14	264	5
TAP	14	336	4
TAP	15	0	0
TAP	15	0	6
TAP	15	72	4
TAP	15	72	5
HLD	15	192	1	144
TAP	15	264	2
TAP	15	336	3
TAP	16	0	1
TAP	16	0	7
TAP	16	72	2
TAP	16	72	3
HLD	16	192	6	144
TAP	16	264	5
TAP	16	336	4
HLD	17	0	3	144
HLD	17	144	2	144
HLD	17	288	1	96
HLD	18	0	0	288
HLD	18	144	4	144
STR	19	0	1
SI_	19	0	1	96	48	4
TAP	19	192	7
TAP	19	240	7
TAP	19	288	7
TAP	19	312	6
TAP	19	360	6
STR	20	0	5
SI_	20	0	5	96	48	0
TAP	20	192	0
TAP	20	240	0
TAP	20	288	0
TAP	20	312	1
TAP	20	360	1
STR	21	0	2
SI_	21	0	2	96	48	7
TAP	21	192	0
TAP	21	240	0
TAP	21	288	0
TAP	21	312	7
TAP	21	360	7
STR	22	0	6
SI_	22	0	6	96	48	3
TAP	22	192	2
TAP	22	240	2
TAP	22	288	2
TAP	22	312	1
TAP	22	360	1
STR	23	0	0
SI_	23	0	0	96	48	5
TAP	23	192	5
TAP	23	240	5
TAP	23	288	5
TAP	23	312	4
TAP	23	360	4
STR	24	0	3
SI_	24	0	3	96	48	6
TAP	24	192	2
TAP	24	240	2
TAP	24	288	2
TAP	24	312	3
TAP	24	360	3
STR	25	0	4
SI_	25	0	4	96	48	1
TAP	25	192	1
TAP	25	240	1
TAP	25	288	1
TAP	25	312	0
TAP	25	360	0
STR	26	0	7
SI_	26	0	7	96	48	2
TAP	26	192	6
TAP	26	240	6
TAP	26	288	6
TAP	26	312	7
TAP	26	360	7
STR	27	0	0
SCL	27	0	0	96	96	5
HLD	27	96	1	216
TAP	27	240	3
TAP	27	312	3
STR	28	0	7
SCR	28	0	7	96	96	2
HLD	28	96	6	216
TAP	28	240	4
TAP	28	312	4
STR	29	0	3
SCR	29	0	3	96	96	6
HLD	29	96	2	216
TAP	29	240	0
TAP	29	312	0
STR	30	0	4
SCL	30	0	4	96	96	1
HLD	30	96	5	216
TAP	30	240	7
TAP	30	312	7
STR	31	0	7
SI_	31	0	7	96	48	3
TAP	31	96	0
STR	31	192	1
SI_	31	192	1	96	48	5
TAP	31	288	2
STR	32	0	3
SI_	32	0	3	96	48	7
TAP	32	96	4
STR	32	192	5
SI_	32	192	5	96	48	1
TAP	32	288	6
STR	33	0	6
SI_	33	0	6	96	48	2
TAP	33	96	5
STR	33	192	4
SI_	33	192	4	96	48	0
TAP	33	288	3
STR	34	0	2
SI_	34	0	2	96	48	6
TAP	34	96	1
STR	34	192	0
SI_	34	192	0	96	48	4
BRK	34	288	7
TAP	35	0	3
TAP	35	48	2
TAP	35	96	1
TAP	35	144	0
HLD	35	192	5	72
HLD	35	264	6	72
TAP	35	336	7
TAP	36	0	4
TAP	36	48	5
TAP	36	96	6
TAP	36	144	7
HLD	36	192	1	72
HLD	36	264	3	72
TAP	36	336	2
TAP	37	0	3
TAP	37	48	2
TAP	37	96	1
TAP	37	144	0
HLD	37	192	5	72
HLD	37	264	6	72
TAP	37	336	7
TAP	38	0	4
TAP	38	48	5
TAP	38	96	6
TAP	38	144	7
HLD	38	192	1	72
HLD	38	264	3	72
TAP	38	336	2
HLD	39	0	4	144
TAP	39	72	6
TAP	39	144	7
HLD	39	192	3	144
TAP	39	264	1
TAP	39	336	0
TAP	40	0	4
TAP	40	0	6
TAP	40	72	2
TAP	40	72	3
TAP	40	120	2
TAP	40	120	3
STR	40	192	5
SI_	40	192	5	96	48	0
TAP	41	0	5
TAP	41	0	7
TAP	41	72	6
TAP	41	144	4
TAP	41	144	5
TAP	41	192	0
TAP	41	192	2
TAP	41	264	1
TAP	41	336	2
TAP	41	336	3
TAP	42	0	5
TAP	42	0	7
TAP	42	72	6
TAP	42	144	4
TAP	42	144	5
TAP	42	192	0
TAP	42	192	2
TAP	42	264	1
TAP	42	336	2
TAP	42	336	3
TAP	43	0	4
TAP	43	0	6
TAP	43	72	5
TAP	43	144	6
TAP	43	144	7
TAP	43	192	1
TAP	43	192	3
TAP	43	264	2
TAP	43	336	0
TAP	43	336	1
TAP	44	0	4
TAP	44	0	6
TAP	44	72	5
TAP	44	144	6
TAP	44	144	7
TAP	44	192	1
TAP	44	192	3
TAP	44	264	2
TAP	44	336	0
TAP	44	336	1
TAP	45	0	4
TAP	45	0	6
TAP	45	72	5
TAP	45	144	2
TAP	45	144	3
TAP	45	192	1
TAP	45	192	3
TAP	45	264	2
TAP	45	336	4
TAP	45	336	5
TAP	46	0	4
TAP	46	0	6
TAP	46	72	5
TAP	46	144	2
TAP	46	144	3
TAP	46	192	1
TAP	46	192	3
TAP	46	264	2
TAP	46	336	4
TAP	46	336	5
TAP	47	0	5
TAP	47	0	7
TAP	47	72	4
TAP	47	144	2
TAP	47	144	3
TAP	47	192	0
TAP	47	192	2
TAP	47	264	3
TAP	47	336	4
TAP	47	336	5
TAP	48	0	5
TAP	48	0	7
TAP	48	72	4
TAP	48	144	2
TAP	48	144	3
TAP	48	192	0
TAP	48	192	2
TAP	48	264	3
TAP	48	336	4
TAP	48	336	5
HLD	49	0	0	72
HLD	49	72	6	72
TAP	49	144	4
HLD	49	192	7	72
HLD	49	264	1	72
TAP	49	336	3
HLD	50	0	0	72
HLD	50	72	6	72
TAP	50	144	4
HLD	50	192	7	72
HLD	50	264	1	72
TAP	50	336	3
HLD	51	0	0	72
HLD	51	72	2	72
TAP	51	144	4
HLD	51	192	7	72
HLD	51	264	5	72
TAP	51	336	3
HLD	52	0	0	72
HLD	52	72	2	72
TAP	52	144	4
HLD	52	192	7	72
HLD	52	264	5	72
TAP	52	336	3
HLD	53	0	0	72
TAP	53	72	2
TAP	53	144	1
TAP	53	144	3
HLD	53	192	7	72
TAP	53	264	5
TAP	53	336	4
TAP	53	336	6
TAP	54	0	5
TAP	54	48	3
TAP	54	48	5
TAP	54	120	2
TAP	54	120	4
TAP	54	192	4
TAP	54	192	5
TAP	54	264	2
TAP	54	264	3
HLD	55	0	5	384
STR	55	144	4
SI_	55	144	4	96	48	0
HLD	56	0	2	288
STR	56	144	3
SI_	56	144	3	96	48	7
STR	57	0	3
SCL	57	0	3	96	48	0
HLD	57	192	5	72
HLD	57	264	6	72
TAP	57	336	7
STR	58	0	4
SCR	58	0	4	96	48	7
HLD	58	192	1	72
HLD	58	264	3	72
TAP	58	336	2
STR	59	0	3
SCL	59	0	3	96	48	0
HLD	59	192	5	72
HLD	59	264	6	72
TAP	59	336	7
STR	60	0	4
SCR	60	0	4	96	48	7
HLD	60	192	1	72
HLD	60	264	3	72
TAP	60	336	2
HLD	61	0	4	144
TAP	61	72	6
TAP	61	144	7
HLD	61	192	3	144
TAP	61	264	1
TAP	61	336	0
TAP	62	0	4
TAP	62	0	6
TAP	62	72	2
TAP	62	72	3
TAP	62	120	2
TAP	62	120	3
STR	62	192	5
SI_	62	192	5	96	48	0
BRK	63	0	7

T_REC_TAP	248
T_REC_BRK	2
T_REC_XTP	0
T_REC_HLD	77
T_REC_XHO	0
T_REC_STR	28
T_REC_BST	0
T_REC_XST	0
T_REC_TTP	0
T_REC_THO	0
T_REC_SLD	28
T_REC_ALL	383
T_NUM_TAP	276
T_NUM_BRK	2
T_NUM_HLD	77
T_NUM_SLD	28
T_NUM_ALL	383
T_JUDGE_TAP	278
T_JUDGE_HLD	195
T_JUDGE_SLD	28
T_JUDGE_ALL	501
TTM_EACHPAIRS	52
TTM_SCR_TAP	138000
TTM_SCR_BRK	5200
TTM_SCR_HLD	77000
TTM_SCR_SLD	42000
TTM_SCR_ALL	262200
TTM_SCR_S	254150
TTM_SCR_SS	262000
TTM_RAT_ACV	10007

