VERSION	0.00.00	1.03.00
FES_MODE	0
BPM_DEF	143.000	143.000	143.000	143.000
MET_DEF	4	4
RESOLUTION	384
CLK_DEF	384
COMPATIBLE_CODE	MA2

BPM	0	0	143.000
MET	0	0	4	4

TAP	1	0	6
TAP	1	192	1
TAP	2	0	7
TAP	2	96	7
TAP	2	192	0
TAP	2	288	0
TAP	3	0	6
TAP	3	96	6
TAP	3	192	5
TAP	3	288	5
TAP	4	0	1
TAP	4	96	1
TAP	4	192	2
TAP	4	288	2
HLD	5	0	6	192
TAP	5	192	5
HLD	6	0	1	192
TAP	6	192	2
TAP	7	0	0
TAP	7	96	0
TAP	7	192	2
TAP	7	288	2
TAP	8	0	7
TAP	8	96	7
TAP	8	192	5
TAP	8	288	5
HLD	9	0	5	192
TAP	9	192	6
HLD	10	0	2	192
TAP	10	192	1
TAP	11	0	7
TAP	11	96	6
TAP	11	192	5
TAP	11	288	5
TAP	12	0	0
TAP	12	96	1
TAP	12	192	2
TAP	12	288	2
HLD	13	0	5	192
HLD	13	192	4	192
HLD	14	0	3	192
TAP	14	192	2
TAP	14	288	2
TAP	15	0	6
TAP	15	96	5
TAP	15	192	4
TAP	15	288	4
TAP	16	0	1
TAP	16	96	2
TAP	16	192	3
TAP	16	288	3
STR	17	0	5
SCL	17	0	5	96	192	2
STR	18	0	1
SCL	18	0	1	96	192	6
TAP	19	0	5
TAP	19	96	4
TAP	19	96	5
TAP	19	192	5
TAP	19	288	4
TAP	19	288	5
TAP	20	0	2
TAP	20	96	2
TAP	20	96	3
TAP	20	192	2
TAP	20	288	2
TAP	20	288	3
TAP	21	0	6
TAP	21	96	5
TAP	21	96	6
TAP	21	192	4
TAP	21	288	4
TAP	21	288	5
TAP	22	0	6
TAP	22	96	5
TAP	22	96	6
TAP	22	192	4
TAP	22	288	4
TAP	22	288	5
TAP	23	0	1
TAP	23	96	1
TAP	23	96	2
TAP	23	192	3
TAP	23	288	2
TAP	23	288	3
TAP	24	0	1
TAP	24	96	1
TAP	24	96	2
TAP	24	192	3
TAP	24	288	2
TAP	24	288	3
TAP	25	0	4
TAP	25	96	5
TAP	25	192	6
TAP	25	288	7
TAP	26	0	0
TAP	26	96	1
TAP	26	192	2
TAP	26	288	3
HLD	27	0	6	192
TAP	27	192	5
TAP	27	288	5
HLD	28	0	1	192
TAP	28	192	2
TAP	28	288	2
HLD	29	0	6	192
TAP	29	192	5
TAP	29	288	5
HLD	30	0	1	192
TAP	30	192	2
TAP	30	288	2
TAP	31	0	1
TAP	31	96	2
TAP	31	192	3
TAP	31	288	4
TAP	32	0	6
TAP	32	96	5
TAP	32	192	4
TAP	32	288	3
TAP	33	0	1
TAP	33	96	2
TAP	33	192	3
TAP	33	288	4
TAP	33	288	5
TAP	34	0	6
TAP	34	96	5
TAP	34	192	4
TAP	34	288	2
TAP	34	288	3
TAP	35	0	1
TAP	35	48	1
TAP	35	96	0
TAP	35	144	0
TAP	35	192	7
TAP	36	0	6
TAP	36	48	6
TAP	36	96	7
TAP	36	144	7
TAP	36	192	0
TAP	37	0	5
TAP	37	96	4
TAP	37	96	5
TAP	37	192	2
TAP	37	288	2
TAP	37	288	3
TAP	38	0	5
TAP	38	96	4
TAP	38	96	6
TAP	38	192	2
TAP	38	288	1
TAP	38	288	3
HLD	39	0	0	192
HLD	39	192	7	192
TAP	40	0	0
TAP	40	96	0
TAP	40	192	7
BRK	40	288	7
TAP	41	0	0
TAP	41	96	0
TAP	41	192	1
TAP	41	336	7
TAP	42	0	7
TAP	42	96	7
TAP	42	192	6
TAP	42	336	1
TAP	43	0	1
TAP	43	96	1
TAP	43	192	2
TAP	43	336	6
TAP	44	0	6
TAP	44	96	6
TAP	44	192	5
TAP	44	336	0
TAP	45	0	0
TAP	45	96	1
TAP	45	192	2
TAP	45	336	7
TAP	46	0	7
TAP	46	96	6
TAP	46	192	5
TAP	46	336	1
TAP	47	0	1
TAP	47	96	2
TAP	47	192	3
TAP	47	336	6
TAP	48	0	6
TAP	48	96	5
TAP	48	192	4
HLD	49	0	2	192
TAP	49	192	3
TAP	49	288	2
TAP	49	288	3
HLD	50	0	5	192
TAP	50	192	4
TAP	50	288	4
TAP	50	288	5
HLD	51	0	1	192
TAP	51	192	2
TAP	51	288	1
TAP	51	288	2
HLD	52	0	6	192
TAP	52	192	5
TAP	52	288	5
TAP	52	288	6
STR	53	0	6
SCL	53	0	6	96	192	3
STR	54	0	1
SCR	54	0	1	96	192	4
HLD	55	0	5	192
HLD	55	192	6	192
HLD	56	0	7	192
BRK	56	192	0
TAP	57	0	0
TAP	57	96	0
TAP	57	96	1
TAP	57	192	7
TAP	57	288	6
TAP	57	288	7
TAP	58	0	1
TAP	58	96	0
TAP	58	96	2
TAP	58	192	6
TAP	58	288	5
TAP	58	288	7
TAP	59	0	6
TAP	59	96	6
TAP	59	192	1
TAP	59	288	1
TAP	60	0	7
TAP	60	96	7
TAP	60	192	0
TAP	60	288	0
HLD	61	0	0	192
HLD	61	0	7	192
TAP	61	288	0
TAP	61	288	7
TAP	62	0	1
TAP	62	96	0
TAP	62	192	7
TAP	62	288	6
BRK	63	0	0
BRK	63	0	7

T_REC_TAP	208
T_REC_BRK	4
T_REC_XTP	0
T_REC_HLD	22
T_REC_XHO	0
T_REC_STR	4
T_REC_BST	0
T_REC_XST	0
T_REC_TTP	0
T_REC_THO	0
T_REC_SLD	4
T_REC_ALL	242
T_NUM_TAP	212
T_NUM_BRK	4
T_NUM_HLD	22
T_NUM_SLD	4
T_NUM_ALL	242
T_JUDGE_TAP	216
T_JUDGE_HLD	88
T_JUDGE_SLD	4
T_JUDGE_ALL	308
TTM_EACHPAIRS	29
TTM_SCR_TAP	106000
TTM_SCR_BRK	10400
TTM_SCR_HLD	22000
TTM_SCR_SLD	6000
TTM_SCR_ALL	144400
TTM_SCR_S	139700
TTM_SCR_SS	144000
TTM_RAT_ACV	10027

