VERSION	0.00.00	1.03.00
FES_MODE	0
BPM_DEF	140.000	140.000	140.000	140.000
MET_DEF	4	4
RESOLUTION	384
CLK_DEF	384
COMPATIBLE_CODE	MA2

BPM	0	0	140.000
MET	0	0	4	4

STR	2	0	6
SI_	2	0	6	96	48	2
STR	2	192	0
SCL	2	192	0	96	48	5
STR	2	264	3
SCL	2	264	3	96	96	0
STR	3	192	7
SI_	3	192	7	96	48	3
STR	4	0	1
SI_	4	0	1	96	48	5
STR	4	192	7
SCR	4	192	7	96	48	2
STR	4	264	4
SCR	4	264	4	96	96	7
STR	5	192	0
SI_	5	192	0	96	48	4
STR	6	0	7
SCR	6	0	7	96	96	2
STR	6	96	2
SCR	6	96	2	96	96	5
STR	7	0	0
SCL	7	0	0	96	96	5
STR	7	96	5
SCL	7	96	5	96	96	2
STR	8	0	7
SI_	8	0	7	96	192	3
STR	8	192	1
SI_	8	192	1	96	192	5
STR	9	0	6
SI_	9	0	6	96	192	2
STR	9	192	4
SI_	9	192	4	96	48	0
STR	10	0	0
SCL	10	0	0	96	96	5
STR	10	96	5
SI_	10	96	5	96	96	1
STR	10	192	1
SCR	10	192	1	96	96	4
STR	11	0	7
SCR	11	0	7	96	96	2
STR	11	96	2
SI_	11	96	2	96	96	6
STR	11	192	6
SCL	11	192	6	96	96	3
STR	12	0	7
SCL	12	0	7	96	96	4
STR	12	96	4
SI_	12	96	4	96	96	0
STR	12	192	0
SCR	12	192	0	96	96	3
STR	13	0	4
SCR	13	0	4	96	96	7
STR	13	96	7
SI_	13	96	7	96	96	3
STR	13	192	3
SCL	13	192	3	96	96	0
STR	14	0	6
SCR	14	0	6	96	96	1
STR	14	96	1
SCR	14	96	1	96	96	4
STR	15	0	1
SCL	15	0	1	96	96	6
STR	15	96	6
SCL	15	96	6	96	96	3
STR	16	0	6
SI_	16	0	6	96	96	3
STR	16	144	0
SCL	16	144	0	96	48	5
STR	16	288	1
SI_	16	288	1	96	192	4
STR	17	144	7
SCR	17	144	7	96	96	2
STR	18	0	0
SI_	18	0	0	96	48	5
STR	18	48	7
SI_	18	48	7	96	48	2
STR	18	192	4
SI_	18	192	4	96	48	1
STR	18	240	3
SI_	18	240	3	96	48	6
STR	19	0	0
SI_	19	0	0	96	48	5
STR	19	48	7
SI_	19	48	7	96	48	2
STR	19	192	4
SI_	19	192	4	96	48	1
STR	19	240	3
SI_	19	240	3	96	48	6
STR	20	0	1
SI_	20	0	1	96	48	4
STR	20	48	2
SI_	20	48	2	96	48	7
STR	20	192	6
SI_	20	192	6	96	48	3
STR	20	240	5
SI_	20	240	5	96	48	0
STR	21	0	1
SI_	21	0	1	96	48	4
STR	21	48	2
SI_	21	48	2	96	48	7
STR	21	192	6
SI_	21	192	6	96	48	3
STR	21	240	5
SI_	21	240	5	96	48	0
STR	22	0	7
SCR	22	0	7	96	48	2
STR	22	48	2
SCR	22	48	2	96	48	5
STR	22	192	6
SI_	22	192	6	96	48	2
STR	22	264	0
SI_	22	264	0	96	48	4
STR	23	0	0
SCL	23	0	0	96	48	5
STR	23	48	5
SCL	23	48	5	96	48	2
STR	23	192	1
SI_	23	192	1	96	48	5
STR	23	264	7
SI_	23	264	7	96	48	3
STR	24	0	7
SCR	24	0	7	96	48	2
STR	24	48	2
SCR	24	48	2	96	48	5
STR	24	192	6
SI_	24	192	6	96	48	2
STR	24	264	0
SI_	24	264	0	96	48	4
STR	25	0	0
SCL	25	0	0	96	48	5
STR	25	48	5
SCL	25	48	5	96	48	2
STR	25	192	1
SI_	25	192	1	96	48	5
STR	25	264	7
SI_	25	264	7	96	48	3
STR	26	0	1
SI_	26	0	1	96	48	4
STR	26	96	4
SI_	26	96	4	96	48	1
STR	26	192	1
SI_	26	192	1	96	48	4
STR	26	288	4
SI_	26	288	4	96	48	1
STR	27	0	6
SI_	27	0	6	96	48	3
STR	27	96	3
SI_	27	96	3	96	48	6
STR	27	192	6
SI_	27	192	6	96	48	3
STR	27	288	3
SI_	27	288	3	96	48	6
STR	28	0	0
SI_	28	0	0	96	48	5
STR	28	96	5
SI_	28	96	5	96	48	0
STR	28	192	0
SI_	28	192	0	96	48	5
STR	28	288	5
SI_	28	288	5	96	48	0
STR	29	0	7
SI_	29	0	7	96	48	2
STR	29	96	2
SI_	29	96	2	96	48	7
STR	29	192	7
SI_	29	192	7	96	48	2
STR	29	288	2
SI_	29	288	2	96	48	7
STR	30	0	1
SI_	30	0	1	96	48	4
STR	30	96	4
SI_	30	96	4	96	48	1
STR	30	192	1
SI_	30	192	1	96	48	6
STR	30	288	6
SI_	30	288	6	96	48	1
STR	31	0	1
SI_	31	0	1	96	48	4
STR	31	96	4
SI_	31	96	4	96	48	1
STR	31	192	1
SI_	31	192	1	96	48	6
STR	31	288	6
SI_	31	288	6	96	48	1
STR	32	0	6
SI_	32	0	6	96	48	3
STR	32	96	3
SI_	32	96	3	96	48	6
STR	32	192	6
SI_	32	192	6	96	48	1
STR	32	288	1
SI_	32	288	1	96	48	6
STR	33	0	6
SI_	33	0	6	96	48	3
STR	33	96	3
SI_	33	96	3	96	48	6
STR	33	192	6
SI_	33	192	6	96	48	1
STR	34	0	1
SI_	34	0	1	96	144	5
STR	34	192	6
SCR	34	192	6	96	48	1
STR	35	0	6
SI_	35	0	6	96	144	2
STR	35	192	1
SCL	35	192	1	96	48	6
STR	36	0	2
SI_	36	0	2	96	144	6
STR	36	192	5
SCL	36	192	5	96	48	2
STR	37	0	5
SI_	37	0	5	96	144	1
STR	37	192	2
SCR	37	192	2	96	48	5
STR	38	0	7
SI_	38	0	7	96	48	3
STR	38	48	3
SI_	38	48	3	96	48	0
STR	38	96	1
SI_	38	96	1	96	96	5
STR	39	0	0
SI_	39	0	0	96	48	4
STR	39	48	4
SI_	39	48	4	96	48	7
STR	39	96	6
SI_	39	96	6	96	96	2
STR	40	0	4
SI_	40	0	4	96	48	0
STR	40	48	0
SI_	40	48	0	96	48	3
STR	40	96	2
SI_	40	96	2	96	96	6
STR	41	0	3
SI_	41	0	3	96	48	7
STR	41	48	7
SI_	41	48	7	96	48	4
STR	41	96	5
SI_	41	96	5	96	96	1
STR	42	0	7
SI_	42	0	7	96	48	2
STR	42	96	7
SCL	42	96	7	96	48	4
STR	42	192	7
SI_	42	192	7	96	48	3
STR	43	0	0
SI_	43	0	0	96	48	5
STR	43	96	0
SCR	43	96	0	96	48	3
STR	43	192	0
SI_	43	192	0	96	48	4
STR	44	0	7
SI_	44	0	7	96	48	2
STR	44	96	7
SCL	44	96	7	96	48	4
STR	44	192	7
SI_	44	192	7	96	48	3
BRK	45	0	0
STR	46	0	0
SCL	46	0	0	96	96	5
STR	46	96	5
SCL	46	96	5	96	96	2
STR	46	192	2
SCL	46	192	2	96	96	7
STR	46	288	7
SI_	46	288	7	96	240	3
STR	47	192	1
SI_	47	192	1	96	48	5
STR	48	0	7
SCR	48	0	7	96	96	2
STR	48	96	2
SCR	48	96	2	96	96	5
STR	48	192	5
SCR	48	192	5	96	96	0
STR	48	288	0
SI_	48	288	0	96	240	4
STR	49	192	6
SI_	49	192	6	96	48	2
STR	50	0	7
SCR	50	0	7	96	96	2
STR	50	96	2
SCR	50	96	2	96	96	5
STR	51	0	0
SCL	51	0	0	96	96	5
STR	51	96	5
SCL	51	96	5	96	96	2
STR	52	0	7
SI_	52	0	7	96	192	3
STR	52	192	1
SI_	52	192	1	96	192	5
STR	53	0	6
SI_	53	0	6	96	192	2
STR	53	192	4
SI_	53	192	4	96	48	0
STR	54	0	6
SCL	54	0	6	96	48	3
STR	54	96	7
SI_	54	96	7	96	48	2
STR	54	192	0
SCL	54	192	0	96	48	5
STR	54	288	1
SI_	54	288	1	96	48	4
STR	55	0	2
SCL	55	0	2	96	48	7
STR	55	96	3
SI_	55	96	3	96	48	6
STR	55	192	4
SCL	55	192	4	96	48	1
STR	55	288	5
SI_	55	288	5	96	48	0
STR	56	0	6
SCL	56	0	6	96	48	3
STR	56	96	7
SI_	56	96	7	96	48	2
STR	56	192	0
SCL	56	192	0	96	48	5
STR	56	288	1
SI_	56	288	1	96	48	4
STR	57	0	2
SCL	57	0	2	96	48	7
STR	57	96	3
SI_	57	96	3	96	48	6
STR	57	192	4
SCL	57	192	4	96	48	1
STR	58	0	7
SCR	58	0	7	96	48	2
STR	58	96	6
SI_	58	96	6	96	48	3
STR	58	192	5
SCR	58	192	5	96	48	0
STR	58	288	4
SI_	58	288	4	96	48	1
STR	59	0	3
SCR	59	0	3	96	48	6
STR	59	96	2
SI_	59	96	2	96	48	7
STR	59	192	1
SCR	59	192	1	96	48	4
STR	59	288	0
SI_	59	288	0	96	48	5
STR	60	0	7
SCR	60	0	7	96	48	2
STR	60	96	6
SI_	60	96	6	96	48	3
STR	60	192	5
SCR	60	192	5	96	48	0
STR	60	288	4
SI_	60	288	4	96	48	1
STR	61	0	3
SCR	61	0	3	96	48	6
STR	61	96	2
SI_	61	96	2	96	48	7
STR	61	192	1
SCR	61	192	1	96	48	4
STR	62	0	0
SI_	62	0	0	96	48	5
STR	62	96	0
SCR	62	96	0	96	96	3
STR	62	192	3
SCR	62	192	3	96	96	6
STR	63	0	7
SI_	63	0	7	96	48	2
STR	63	96	7
SCL	63	96	7	96	96	4
STR	63	192	4
SCL	63	192	4	96	96	1
STR	64	0	0
SI_	64	0	0	96	48	5
STR	64	96	0
SCR	64	96	0	96	96	3
STR	64	192	3
SCR	64	192	3	96	96	6
BRK	65	0	7

T_REC_TAP	0
T_REC_BRK	2
T_REC_XTP	0
T_REC_HLD	0
T_REC_XHO	0
T_REC_STR	185
T_REC_BST	0
T_REC_XST	0
T_REC_TTP	0
T_REC_THO	0
T_REC_SLD	185
T_REC_ALL	372
T_NUM_TAP	185
T_NUM_BRK	2
T_NUM_HLD	0
T_NUM_SLD	185
T_NUM_ALL	372
T_JUDGE_TAP	187
T_JUDGE_HLD	0
T_JUDGE_SLD	185
T_JUDGE_ALL	372
TTM_EACHPAIRS	0
TTM_SCR_TAP	92500
TTM_SCR_BRK	5200
TTM_SCR_HLD	0
TTM_SCR_SLD	277500
TTM_SCR_ALL	375200
TTM_SCR_S	363750
TTM_SCR_SS	375000
TTM_RAT_ACV	10005

