VERSION	0.00.00	1.03.00
FES_MODE	0
BPM_DEF	140.000	140.000	140.000	140.000
MET_DEF	4	4
RESOLUTION	384
CLK_DEF	384
COMPATIBLE_CODE	MA2

BPM	0	0	140.000
MET	0	0	4	4

HLD	2	0	7	96
HLD	2	96	5	96
TAP	2	192	6
TAP	2	264	5
TAP	2	336	4
HLD	3	0	0	96
HLD	3	96	2	96
TAP	3	192	1
TAP	3	264	2
TAP	3	336	3
HLD	4	0	4	96
HLD	4	96	6	96
TAP	4	192	5
TAP	4	264	6
TAP	4	336	7
HLD	5	0	3	96
HLD	5	96	1	96
TAP	5	192	2
TAP	5	264	1
TAP	5	336	0
TAP	6	0	6
TAP	6	48	5
TAP	6	96	4
TAP	6	144	3
STR	6	192	2
SCL	6	192	2	96	48	7
HLD	6	264	6	72
TAP	6	336	5
TAP	7	0	4
TAP	7	48	3
TAP	7	96	2
TAP	7	144	1
STR	7	192	0
SI_	7	192	0	96	48	5
HLD	7	264	7	72
TAP	7	336	6
STR	8	0	5
SI_	8	0	5	96	96	0
STR	8	192	7
SI_	8	192	7	96	96	2
STR	9	0	1
SI_	9	0	1	96	96	4
STR	9	192	3
SI_	9	192	3	96	96	6
TAP	10	0	7
TAP	10	48	0
TAP	10	96	1
HLD	10	192	3	72
HLD	10	264	2	72
TAP	10	336	1
TAP	11	0	0
TAP	11	48	7
TAP	11	96	6
HLD	11	192	4	72
HLD	11	264	5	72
TAP	11	336	6
TAP	12	0	0
TAP	12	48	1
TAP	12	96	2
HLD	12	192	4	72
HLD	12	264	6	72
TAP	12	336	0
TAP	13	0	7
TAP	13	48	6
TAP	13	96	5
HLD	13	192	3	72
HLD	13	264	1	72
TAP	13	336	7
TAP	14	0	0
TAP	14	48	1
TAP	14	96	2
TAP	14	96	3
HLD	14	192	4	72
HLD	14	264	6	72
TAP	14	336	0
TAP	15	0	7
TAP	15	48	6
TAP	15	96	4
TAP	15	96	5
HLD	15	192	3	72
HLD	15	264	1	72
TAP	15	336	7
HLD	16	0	0	144
STR	16	144	7
SI_	16	144	7	96	96	2
HLD	16	288	7	96
STR	17	0	6
SI_	17	0	6	96	96	3
HLD	17	144	6	144
STR	18	0	0
SI_	18	0	0	96	48	4
TAP	18	48	7
TAP	18	96	6
TAP	18	144	5
TAP	18	192	3
TAP	18	216	2
TAP	18	264	2
TAP	18	336	0
TAP	18	336	1
STR	19	0	7
SI_	19	0	7	96	48	3
TAP	19	48	0
TAP	19	96	1
TAP	19	144	2
TAP	19	192	4
TAP	19	216	5
TAP	19	264	5
TAP	19	336	6
TAP	19	336	7
STR	20	0	0
SI_	20	0	0	96	48	4
TAP	20	48	1
TAP	20	96	2
TAP	20	144	3
TAP	20	192	5
TAP	20	216	6
TAP	20	264	6
TAP	20	336	6
TAP	20	336	7
STR	21	0	7
SI_	21	0	7	96	48	3
TAP	21	48	6
TAP	21	96	5
TAP	21	144	4
TAP	21	192	2
TAP	21	216	1
TAP	21	264	1
TAP	21	336	0
TAP	21	336	1
STR	22	0	0
SCL	22	0	0	96	48	5
TAP	22	48	1
TAP	22	96	2
TAP	22	144	3
TAP	22	192	3
TAP	22	216	4
TAP	22	264	4
TAP	22	336	5
TAP	22	336	6
STR	23	0	7
SCR	23	0	7	96	48	2
TAP	23	48	6
TAP	23	96	5
TAP	23	144	4
TAP	23	192	4
TAP	23	216	3
TAP	23	264	3
TAP	23	336	1
TAP	23	336	2
STR	24	0	0
SCL	24	0	0	96	48	5
TAP	24	48	1
TAP	24	96	2
TAP	24	144	3
TAP	24	192	3
TAP	24	216	2
TAP	24	264	2
TAP	24	336	0
TAP	24	336	1
STR	25	0	7
SCR	25	0	7	96	48	2
TAP	25	48	6
TAP	25	96	5
TAP	25	144	4
TAP	25	192	4
TAP	25	216	5
TAP	25	264	5
TAP	25	336	6
TAP	25	336	7
STR	26	0	0
SI_	26	0	0	96	48	4
TAP	26	48	7
STR	26	96	6
SI_	26	96	6	96	48	2
TAP	26	264	4
TAP	26	336	4
STR	27	0	7
SI_	27	0	7	96	48	3
TAP	27	48	0
STR	27	96	1
SI_	27	96	1	96	48	5
TAP	27	264	3
TAP	27	336	3
STR	28	0	0
SI_	28	0	0	96	48	4
TAP	28	48	7
STR	28	96	6
SI_	28	96	6	96	48	2
TAP	28	264	4
TAP	28	336	2
TAP	28	336	3
STR	29	0	7
SI_	29	0	7	96	48	3
TAP	29	48	0
STR	29	96	1
SI_	29	96	1	96	48	5
TAP	29	264	3
TAP	29	336	4
TAP	29	336	5
STR	30	0	0
SI_	30	0	0	96	48	4
TAP	30	48	7
STR	30	96	6
SI_	30	96	6	96	48	1
TAP	30	192	2
TAP	30	264	3
TAP	30	336	2
TAP	30	336	3
STR	31	0	7
SI_	31	0	7	96	48	3
TAP	31	48	0
STR	31	96	1
SI_	31	96	1	96	48	6
TAP	31	192	5
TAP	31	264	4
TAP	31	336	4
TAP	31	336	5
STR	32	0	0
SI_	32	0	0	96	48	4
TAP	32	48	7
STR	32	96	6
SCL	32	96	6	96	48	3
TAP	32	192	1
TAP	32	264	2
TAP	32	336	1
TAP	32	336	2
STR	33	0	7
SI_	33	0	7	96	48	3
TAP	33	48	0
STR	33	96	1
SCR	33	96	1	96	48	4
TAP	33	192	6
TAP	33	264	5
TAP	33	336	5
TAP	33	336	6
HLD	34	0	6	144
TAP	34	144	7
STR	34	192	7
SCL	34	192	7	96	48	4
HLD	35	0	1	144
TAP	35	144	0
STR	35	192	0
SCR	35	192	0	96	48	3
HLD	36	0	6	144
TAP	36	144	5
STR	36	192	5
SCR	36	192	5	96	48	0
HLD	37	0	1	144
TAP	37	144	2
STR	37	192	2
SCL	37	192	2	96	48	7
TAP	38	0	7
TAP	38	72	6
TAP	38	144	4
TAP	38	144	5
TAP	38	192	4
TAP	38	264	3
TAP	38	336	1
TAP	38	336	2
TAP	39	0	1
TAP	39	72	0
TAP	39	144	6
TAP	39	144	7
TAP	39	192	6
TAP	39	264	5
TAP	39	336	3
TAP	39	336	4
TAP	40	0	2
TAP	40	72	3
TAP	40	144	4
TAP	40	144	5
TAP	40	192	5
TAP	40	264	6
TAP	40	336	0
TAP	40	336	7
TAP	41	0	0
TAP	41	72	1
TAP	41	144	2
TAP	41	144	3
TAP	41	192	3
TAP	41	264	4
TAP	41	336	5
TAP	41	336	6
TAP	42	0	7
TAP	42	48	0
TAP	42	96	1
TAP	42	144	2
TAP	42	192	3
TAP	42	240	3
TAP	42	264	2
TAP	42	312	2
TAP	42	336	1
TAP	43	0	0
TAP	43	48	7
TAP	43	96	6
TAP	43	144	5
TAP	43	192	4
TAP	43	240	4
TAP	43	264	5
TAP	43	312	5
TAP	43	336	6
TAP	44	0	7
TAP	44	48	0
TAP	44	96	1
TAP	44	144	2
TAP	44	192	3
TAP	44	240	3
TAP	44	264	4
TAP	44	312	4
TAP	44	336	5
BRK	45	0	5
TAP	45	192	7
TAP	45	240	6
TAP	45	288	4
TAP	45	312	5
TAP	45	336	4
TAP	46	0	2
TAP	46	0	3
TAP	46	48	4
TAP	46	96	5
TAP	46	96	6
HLD	46	192	7	72
HLD	46	264	1	72
TAP	46	336	3
TAP	47	0	4
TAP	47	0	5
TAP	47	48	3
TAP	47	96	1
TAP	47	96	2
HLD	47	192	0	72
HLD	47	264	6	72
TAP	47	336	4
TAP	48	0	2
TAP	48	0	3
TAP	48	48	4
TAP	48	96	3
TAP	48	96	6
HLD	48	192	5	72
HLD	48	264	7	72
TAP	48	336	1
TAP	49	0	4
TAP	49	0	5
TAP	49	48	3
TAP	49	96	1
TAP	49	96	4
HLD	49	192	2	72
HLD	49	264	0	72
TAP	49	336	6
TAP	50	0	4
TAP	50	0	5
TAP	50	48	6
STR	50	96	3
SI_	50	96	3	96	48	7
HLD	50	192	0	72
HLD	50	264	1	72
TAP	50	336	2
TAP	51	0	2
TAP	51	0	3
TAP	51	48	1
STR	51	96	4
SI_	51	96	4	96	48	0
HLD	51	192	7	72
HLD	51	264	6	72
TAP	51	336	5
STR	52	0	1
SI_	52	0	1	96	96	4
STR	52	192	0
SI_	52	192	0	96	96	5
STR	53	0	7
SI_	53	0	7	96	96	2
STR	53	192	6
SI_	53	192	6	96	96	3
STR	54	0	4
SI_	54	0	4	96	48	1
HLD	54	192	7	72
HLD	54	264	0	72
TAP	54	336	1
TAP	55	0	2
STR	55	0	3
SI_	55	0	3	96	48	6
HLD	55	192	0	72
HLD	55	264	7	72
TAP	55	336	6
STR	56	0	4
SCL	56	0	4	96	48	1
TAP	56	0	5
HLD	56	192	7	72
HLD	56	264	0	72
TAP	56	336	1
TAP	57	0	2
STR	57	0	3
SCR	57	0	3	96	48	6
HLD	57	192	0	72
HLD	57	264	7	72
TAP	57	336	6
STR	58	0	4
SI_	58	0	4	96	48	1
HLD	58	144	7	48
HLD	58	192	0	72
HLD	58	264	1	72
TAP	58	336	0
TAP	59	0	2
STR	59	0	3
SI_	59	0	3	96	48	6
HLD	59	144	0	48
HLD	59	192	7	72
HLD	59	264	6	72
TAP	59	336	7
STR	60	0	4
SCL	60	0	4	96	48	1
TAP	60	0	5
HLD	60	144	7	48
HLD	60	192	0	72
HLD	60	264	1	72
TAP	60	336	0
TAP	61	0	2
STR	61	0	3
SCR	61	0	3	96	48	6
HLD	61	144	0	48
HLD	61	192	7	72
HLD	61	264	6	72
TAP	61	336	5
TAP	62	0	7
TAP	62	48	0
TAP	62	96	1
TAP	62	144	2
TAP	62	144	3
TAP	62	192	4
TAP	62	240	4
TAP	62	264	5
TAP	62	312	5
BRK	62	336	4
TAP	63	0	0
TAP	63	48	7
TAP	63	96	6
TAP	63	144	4
TAP	63	144	5
TAP	63	192	3
TAP	63	240	3
TAP	63	264	2
TAP	63	312	2
BRK	63	336	3
TAP	64	0	1
TAP	64	48	2
TAP	64	96	3
TAP	64	144	4
TAP	64	144	5
TAP	64	192	6
TAP	64	240	6
TAP	64	264	7
TAP	64	312	7
BRK	64	336	0
BRK	65	0	0
BRK	65	0	7

T_REC_TAP	287
T_REC_BRK	6
T_REC_XTP	0
T_REC_HLD	61
T_REC_XHO	0
T_REC_STR	50
T_REC_BST	0
T_REC_XST	0
T_REC_TTP	0
T_REC_THO	0
T_REC_SLD	50
T_REC_ALL	454
T_NUM_TAP	337
T_NUM_BRK	6
T_NUM_HLD	61
T_NUM_SLD	50
T_NUM_ALL	454
T_JUDGE_TAP	343
T_JUDGE_HLD	124
T_JUDGE_SLD	50
T_JUDGE_ALL	517
TTM_EACHPAIRS	44
TTM_SCR_TAP	168500
TTM_SCR_BRK	15600
TTM_SCR_HLD	61000
TTM_SCR_SLD	75000
TTM_SCR_ALL	320100
TTM_SCR_S	309950
TTM_SCR_SS	319500
TTM_RAT_ACV	10018

