VERSION	0.00.00	1.03.00
FES_MODE	0
BPM_DEF	140.000	140.000	140.000	140.000
MET_DEF	4	4
RESOLUTION	384
CLK_DEF	384
COMPATIBLE_CODE	MA2

BPM	0	0	140.000
MET	0	0	4	4

TAP	2	0	0
TAP	2	96	0
TAP	2	192	6
TAP	3	0	7
TAP	3	96	7
TAP	3	192	1
TAP	4	0	2
TAP	4	96	2
TAP	4	192	0
HLD	5	0	7	192
TAP	5	192	5
TAP	6	0	6
TAP	6	96	6
TAP	6	192	0
TAP	7	0	1
TAP	7	96	1
TAP	7	192	7
HLD	8	0	7	192
HLD	8	192	6	192
HLD	9	0	5	192
BRK	9	192	4
TAP	10	0	1
TAP	10	96	1
HLD	10	192	0	96
TAP	11	0	7
TAP	11	96	7
HLD	11	192	6	96
TAP	12	0	5
TAP	12	96	5
HLD	12	192	4	96
TAP	13	0	3
TAP	13	96	3
HLD	13	192	2	96
HLD	14	0	1	192
TAP	14	192	0
HLD	15	0	6	192
TAP	15	192	7
STR	16	0	1
SI_	16	0	1	96	192	4
STR	17	0	6
SI_	17	0	6	96	192	3
TAP	18	0	0
TAP	18	96	0
TAP	18	192	1
TAP	18	336	7
TAP	19	0	7
TAP	19	96	7
TAP	19	192	6
TAP	19	336	1
TAP	20	0	1
TAP	20	96	1
TAP	20	192	2
TAP	20	336	6
TAP	21	0	6
TAP	21	96	6
TAP	21	192	5
TAP	21	336	0
TAP	22	0	0
TAP	22	96	0
TAP	22	192	1
TAP	22	336	6
TAP	23	0	6
TAP	23	96	5
TAP	23	192	4
TAP	23	336	0
TAP	24	0	0
TAP	24	96	1
TAP	24	192	2
STR	25	0	5
SCL	25	0	5	96	192	2
TAP	26	0	1
TAP	26	48	1
TAP	26	96	7
TAP	26	192	6
TAP	26	288	6
TAP	27	0	6
TAP	27	48	6
TAP	27	96	0
TAP	27	192	1
TAP	27	288	1
TAP	28	0	1
TAP	28	48	1
TAP	28	96	6
TAP	28	192	4
TAP	28	288	4
TAP	29	0	7
TAP	29	48	7
TAP	29	96	1
TAP	29	192	3
TAP	29	288	3
TAP	30	0	7
TAP	30	48	6
TAP	30	96	5
TAP	30	192	1
TAP	30	288	1
TAP	31	0	0
TAP	31	48	1
TAP	31	96	2
TAP	31	192	6
TAP	31	288	6
TAP	32	0	6
TAP	32	48	5
TAP	32	96	4
TAP	32	192	2
TAP	32	288	2
TAP	33	0	1
TAP	33	48	2
STR	33	96	3
SCR	33	96	3	96	96	6
HLD	34	0	0	192
TAP	34	192	1
TAP	34	288	2
HLD	35	0	7	192
TAP	35	192	6
TAP	35	288	5
HLD	36	0	1	192
TAP	36	192	2
TAP	36	288	3
HLD	37	0	6	192
TAP	37	192	5
TAP	37	288	4
HLD	38	0	0	192
TAP	38	192	1
STR	38	288	2
SCR	38	288	2	96	144	5
HLD	40	0	7	192
TAP	40	192	6
STR	40	288	5
SCL	40	288	5	96	144	2
TAP	42	0	7
TAP	42	96	0
TAP	42	192	1
TAP	42	288	2
TAP	42	288	3
TAP	43	0	0
TAP	43	96	7
TAP	43	192	6
TAP	43	288	4
TAP	43	288	5
TAP	44	0	7
TAP	44	96	0
TAP	44	192	1
TAP	44	288	2
TAP	44	288	3
BRK	45	0	4
BRK	45	0	6
TAP	46	0	7
TAP	46	96	6
TAP	46	192	4
TAP	46	192	5
TAP	46	336	0
TAP	47	0	0
TAP	47	96	1
TAP	47	192	2
TAP	47	192	3
TAP	47	336	6
TAP	48	0	6
TAP	48	96	5
TAP	48	192	3
TAP	48	192	4
TAP	48	336	1
TAP	49	0	1
TAP	49	96	2
TAP	49	192	3
TAP	49	192	4
TAP	49	336	0
TAP	50	0	0
TAP	50	96	6
TAP	50	192	3
TAP	50	336	7
TAP	51	0	7
TAP	51	96	1
TAP	51	192	4
HLD	52	0	0	192
HLD	52	192	1	192
HLD	53	0	2	192
BRK	53	192	3
TAP	54	0	7
TAP	54	96	0
TAP	54	96	6
TAP	54	192	0
TAP	54	288	1
TAP	54	288	7
TAP	55	0	6
TAP	55	96	1
TAP	55	96	7
TAP	55	192	1
TAP	55	288	0
TAP	55	288	6
TAP	56	0	2
TAP	56	96	1
TAP	56	96	4
TAP	56	192	4
TAP	56	288	3
TAP	56	288	6
TAP	57	0	1
TAP	57	96	2
TAP	57	96	3
TAP	57	192	6
TAP	57	288	4
TAP	57	288	5
HLD	58	0	6	192
TAP	58	192	7
STR	58	288	6
SI_	58	288	6	96	144	3
STR	58	288	7
SI_	58	288	7	96	144	2
HLD	60	0	1	192
TAP	60	192	0
STR	60	288	0
SI_	60	288	0	96	144	5
STR	60	288	1
SI_	60	288	1	96	144	4
TAP	62	0	1
TAP	62	96	2
TAP	62	192	3
TAP	62	288	4
TAP	62	288	5
TAP	63	0	6
TAP	63	96	5
TAP	63	192	4
TAP	63	288	2
TAP	63	288	3
TAP	64	0	1
TAP	64	96	0
TAP	64	192	7
TAP	64	288	0
TAP	64	288	7
BRK	65	0	1
BRK	65	0	6

T_REC_TAP	183
T_REC_BRK	6
T_REC_XTP	0
T_REC_HLD	21
T_REC_XHO	0
T_REC_STR	10
T_REC_BST	0
T_REC_XST	0
T_REC_TTP	0
T_REC_THO	0
T_REC_SLD	10
T_REC_ALL	230
T_NUM_TAP	193
T_NUM_BRK	6
T_NUM_HLD	21
T_NUM_SLD	10
T_NUM_ALL	230
T_JUDGE_TAP	199
T_JUDGE_HLD	76
T_JUDGE_SLD	10
T_JUDGE_ALL	285
TTM_EACHPAIRS	22
TTM_SCR_TAP	96500
TTM_SCR_BRK	15600
TTM_SCR_HLD	21000
TTM_SCR_SLD	15000
TTM_SCR_ALL	148100
TTM_SCR_S	143100
TTM_SCR_SS	147500
TTM_RAT_ACV	10040

