VERSION	0.00.00	1.03.00
FES_MODE	0
BPM_DEF	140.000	140.000	140.000	140.000
MET_DEF	4	4
RESOLUTION	384
CLK_DEF	384
COMPATIBLE_CODE	MA2

BPM	0	0	140.000
MET	0	0	4	4

TAP	2	0	1
TAP	2	192	0
TAP	3	0	7
TAP	4	0	6
TAP	4	192	7
TAP	5	0	0
TAP	6	0	1
TAP	6	192	1
HLD	7	0	2	192
TAP	8	0	3
TAP	8	192	3
TAP	9	0	4
TAP	9	192	4
TAP	10	0	5
TAP	10	192	4
TAP	11	0	3
TAP	12	0	2
TAP	12	192	3
TAP	13	0	4
TAP	14	0	5
TAP	14	192	5
HLD	15	0	6	192
HLD	16	0	7	144
HLD	17	0	0	144
TAP	18	0	1
TAP	18	192	1
TAP	19	0	0
TAP	19	192	0
TAP	20	0	6
TAP	20	192	6
TAP	21	0	7
TAP	21	192	7
STR	22	0	0
SI_	22	0	0	96	96	4
TAP	23	0	5
TAP	23	192	6
STR	24	0	7
SI_	24	0	7	96	96	3
TAP	25	0	2
TAP	25	192	1
TAP	26	0	7
TAP	26	192	7
TAP	27	0	0
TAP	27	192	0
HLD	28	0	7	192
HLD	29	0	7	192
TAP	30	0	6
TAP	30	192	6
TAP	31	0	4
TAP	31	192	4
TAP	32	0	3
TAP	32	192	3
BRK	33	0	1
HLD	34	0	0	192
TAP	35	0	1
TAP	35	192	1
TAP	36	0	3
TAP	36	192	3
HLD	37	0	4	192
TAP	38	0	3
TAP	38	192	2
HLD	39	0	1	192
TAP	40	0	4
TAP	40	192	5
HLD	41	0	6	192
HLD	42	0	0	192
HLD	43	0	7	192
HLD	44	0	0	192
HLD	44	0	7	192
TAP	45	0	1
TAP	45	0	6
TAP	46	0	1
TAP	46	96	1
TAP	46	192	0
TAP	46	288	0
HLD	47	0	7	192
TAP	48	0	6
TAP	48	96	6
TAP	48	192	7
TAP	48	288	7
HLD	49	0	0	192
TAP	50	0	1
TAP	50	96	1
TAP	50	192	2
TAP	51	0	2
TAP	51	96	2
TAP	51	192	3
TAP	52	0	4
TAP	52	192	4
TAP	53	0	5
TAP	53	192	5
HLD	54	0	6	192
TAP	55	0	5
TAP	55	96	5
TAP	55	192	4
TAP	55	288	4
TAP	56	0	3
TAP	56	192	3
HLD	57	0	2	192
TAP	58	0	4
TAP	58	96	4
TAP	58	192	5
TAP	58	288	5
HLD	59	0	6	192
TAP	60	0	3
TAP	60	96	3
TAP	60	192	2
TAP	60	288	2
HLD	61	0	1	192
HLD	62	0	7	192
HLD	63	0	0	192
HLD	64	0	0	192
HLD	64	0	7	192
BRK	65	0	1
BRK	65	0	6

T_REC_TAP	84
T_REC_BRK	3
T_REC_XTP	0
T_REC_HLD	24
T_REC_XHO	0
T_REC_STR	2
T_REC_BST	0
T_REC_XST	0
T_REC_TTP	0
T_REC_THO	0
T_REC_SLD	2
T_REC_ALL	115
T_NUM_TAP	86
T_NUM_BRK	3
T_NUM_HLD	24
T_NUM_SLD	2
T_NUM_ALL	115
T_JUDGE_TAP	89
T_JUDGE_HLD	94
T_JUDGE_SLD	2
T_JUDGE_ALL	185
TTM_EACHPAIRS	4
TTM_SCR_TAP	43000
TTM_SCR_BRK	7800
TTM_SCR_HLD	24000
TTM_SCR_SLD	3000
TTM_SCR_ALL	77800
TTM_SCR_S	75200
TTM_SCR_SS	77500
TTM_RAT_ACV	10038

