VERSION	0.00.00	1.03.00
FES_MODE	0
BPM_DEF	170.000	170.000	170.000	170.000
MET_DEF	4	4
RESOLUTION	384
CLK_DEF	384
COMPATIBLE_CODE	MA2

BPM	0	0	170.000
MET	0	0	4	4

HLD	2	0	1	768
TAP	3	288	7
HLD	4	0	7	768
TAP	5	288	5
HLD	6	0	5	768
TAP	8	0	3
TAP	8	96	3
TAP	8	192	3
TAP	8	288	3
TAP	8	336	2
TAP	8	360	4
TAP	9	0	1
TAP	9	0	5
TAP	10	0	0
TAP	10	0	5
TAP	10	48	7
TAP	10	96	6
TAP	10	144	2
TAP	10	144	7
TAP	10	192	0
TAP	10	240	1
TAP	10	288	3
TAP	10	288	6
TAP	10	336	4
TAP	11	0	5
TAP	11	48	1
TAP	11	48	4
TAP	11	96	3
TAP	11	144	2
TAP	11	192	3
TAP	11	192	5
TAP	11	240	4
TAP	11	288	1
TAP	11	288	3
TAP	11	336	2
TAP	12	0	2
TAP	12	0	7
TAP	12	48	0
TAP	12	96	1
TAP	12	144	0
TAP	12	144	5
TAP	12	192	7
TAP	12	240	6
TAP	12	288	1
TAP	12	288	4
TAP	12	336	3
TAP	13	0	2
TAP	13	48	3
TAP	13	48	6
TAP	13	96	4
TAP	13	144	5
TAP	13	192	1
TAP	13	192	3
TAP	13	240	2
TAP	13	288	3
TAP	13	288	5
TAP	13	336	4
TAP	14	0	1
TAP	14	0	6
TAP	14	48	0
TAP	14	96	7
TAP	14	144	3
TAP	14	144	6
TAP	14	192	4
TAP	14	240	5
TAP	14	288	1
TAP	14	288	4
TAP	14	336	3
TAP	15	0	2
TAP	15	48	0
TAP	15	48	3
TAP	15	96	1
TAP	15	144	2
TAP	15	192	1
TAP	15	192	3
TAP	15	240	2
TAP	15	288	1
TAP	15	288	7
TAP	15	336	0
TAP	16	0	1
TAP	16	0	6
TAP	16	48	7
TAP	16	96	0
TAP	16	144	1
TAP	16	144	4
TAP	16	192	3
TAP	16	240	2
TAP	16	288	3
TAP	16	288	6
TAP	16	336	4
TAP	17	0	5
TAP	17	48	4
TAP	17	48	7
TAP	17	96	6
TAP	17	144	5
TAP	17	192	4
TAP	17	192	6
TAP	17	240	5
TAP	17	288	0
TAP	17	288	6
HLD	18	0	7	96
TAP	18	96	0
HLD	18	144	0	96
TAP	18	240	1
HLD	18	288	1	96
TAP	19	0	2
HLD	19	48	2	96
TAP	19	144	3
STR	19	192	3
SI_	19	192	3	96	48	7
STR	19	288	4
SI_	19	288	4	96	48	1
HLD	20	0	0	96
TAP	20	96	7
HLD	20	144	7	96
TAP	20	240	6
HLD	20	288	6	96
TAP	21	0	5
HLD	21	48	5	96
TAP	21	144	4
STR	21	192	4
SI_	21	192	4	96	48	0
STR	21	288	3
SI_	21	288	3	96	48	6
HLD	22	0	1	96
TAP	22	96	3
HLD	22	144	3	96
TAP	22	240	4
HLD	22	288	4	96
TAP	23	0	6
HLD	23	48	6	96
TAP	23	144	7
STR	23	192	0
SI_	23	192	0	96	48	4
STR	23	288	7
SI_	23	288	7	96	48	2
HLD	24	0	5	96
TAP	24	96	7
HLD	24	144	7	96
TAP	24	240	0
HLD	24	288	0	96
TAP	25	0	2
HLD	25	48	2	96
TAP	25	144	3
STR	25	192	4
SI_	25	192	4	96	48	0
STR	25	288	3
SI_	25	288	3	96	48	6
TAP	26	0	7
TAP	26	96	7
STR	26	144	7
SI_	26	144	7	96	48	3
TAP	26	240	1
STR	26	288	1
SI_	26	288	1	96	48	4
TAP	27	0	6
STR	27	48	6
SI_	27	48	6	96	48	3
TAP	27	144	0
STR	27	192	0
SI_	27	192	0	96	48	4
STR	27	288	7
SCR	27	288	7	96	48	2
TAP	28	0	6
TAP	28	96	6
STR	28	144	6
SI_	28	144	6	96	48	2
TAP	28	240	0
STR	28	288	0
SI_	28	288	0	96	48	4
TAP	29	0	7
STR	29	48	7
SI_	29	48	7	96	48	3
TAP	29	144	1
STR	29	192	1
SI_	29	192	1	96	48	5
STR	29	288	6
SCL	29	288	6	96	48	3
TAP	30	0	0
TAP	30	96	0
STR	30	144	0
SI_	30	144	0	96	48	4
TAP	30	240	6
STR	30	288	6
SI_	30	288	6	96	48	2
TAP	31	0	5
STR	31	48	5
SI_	31	48	5	96	48	1
TAP	31	144	3
STR	31	192	3
SI_	31	192	3	96	48	7
STR	31	288	1
SCR	31	288	1	96	48	4
TAP	32	0	7
TAP	32	96	7
STR	32	144	7
SI_	32	144	7	96	48	3
TAP	32	240	1
STR	32	288	1
SI_	32	288	1	96	48	5
TAP	33	0	3
STR	33	48	3
SI_	33	48	3	96	48	7
BRK	33	240	2
BRK	33	240	7
BRK	33	288	0
BRK	33	288	3
BRK	33	336	1
BRK	33	336	4
TAP	34	144	0
TAP	34	144	5
TAP	34	192	4
TAP	34	192	7
TAP	34	240	3
TAP	34	240	6
HLD	34	336	6	96
HLD	35	48	5	96
HLD	35	144	4	96
STR	35	240	5
SCR	35	240	5	96	48	0
STR	35	288	0
SCR	35	288	0	96	48	3
TAP	36	144	2
TAP	36	144	7
TAP	36	192	0
TAP	36	192	3
TAP	36	240	1
TAP	36	240	4
HLD	36	336	1	96
HLD	37	48	2	96
HLD	37	144	3	96
STR	37	240	2
SCL	37	240	2	96	48	7
STR	37	288	7
SCL	37	288	7	96	48	4
TAP	38	144	0
TAP	38	144	3
TAP	38	192	1
TAP	38	192	4
TAP	38	240	2
TAP	38	240	5
STR	38	336	6
SI_	38	336	6	96	48	3
STR	39	48	7
SCL	39	48	7	96	48	4
STR	39	144	1
SCR	39	144	1	96	48	4
STR	39	240	0
SI_	39	240	0	96	48	4
STR	39	336	7
SCR	39	336	7	96	48	2
BRK	40	96	7
STR	40	336	1
SI_	40	336	1	96	48	5
STR	41	48	2
SCL	41	48	2	96	96	7
TAP	41	96	2
HLD	41	336	7	96
TAP	42	48	6
TAP	42	96	4
TAP	42	96	5
TAP	42	192	3
TAP	42	240	4
TAP	42	240	5
STR	42	336	6
SI_	42	336	6	96	48	1
STR	43	48	0
SI_	43	48	0	96	48	3
STR	43	144	1
SI_	43	144	1	96	48	4
TAP	43	240	6
TAP	43	288	7
HLD	43	336	0	96
TAP	44	48	1
TAP	44	96	2
TAP	44	96	3
TAP	44	192	4
TAP	44	240	2
TAP	44	240	3
STR	44	336	1
SI_	44	336	1	96	48	6
STR	45	48	7
SI_	45	48	7	96	48	4
STR	45	144	6
SI_	45	144	6	96	48	3
TAP	45	240	0
TAP	45	288	1
HLD	45	336	2	96
TAP	46	48	4
TAP	46	96	5
TAP	46	96	6
TAP	46	192	7
TAP	46	240	5
TAP	46	240	6
STR	46	336	0
SI_	46	336	0	96	48	5
STR	47	48	7
SI_	47	48	7	96	48	3
STR	47	144	5
SI_	47	144	5	96	48	2
TAP	47	240	7
TAP	47	288	6
HLD	47	336	0	96
TAP	48	48	3
TAP	48	96	1
TAP	48	96	2
TAP	48	192	0
TAP	48	240	1
TAP	48	240	2
STR	48	336	6
SCL	48	336	6	96	48	3
TAP	49	0	6
TAP	49	96	1
STR	49	144	1
SCL	49	144	1	96	48	6
TAP	49	240	4
TAP	49	288	3
TAP	49	336	2
STR	50	48	0
SCL	50	48	0	96	48	5
TAP	50	96	1
TAP	50	144	2
TAP	50	192	3
STR	50	240	4
SCR	50	240	4	96	48	7
TAP	50	288	3
BRK	50	336	2
STR	51	48	1
SCR	51	48	1	96	48	4
TAP	51	96	0
TAP	51	144	7
TAP	51	192	6
STR	51	240	5
SCL	51	240	5	96	48	2
TAP	51	288	6
BRK	51	336	7
STR	52	48	7
SCR	52	48	7	96	48	2
TAP	52	96	6
TAP	52	144	5
TAP	52	192	4
STR	52	240	3
SCL	52	240	3	96	48	0
TAP	52	288	4
BRK	52	336	5
STR	53	48	5
SCR	53	48	5	96	48	0
TAP	53	96	4
TAP	53	144	3
TAP	53	192	2
STR	53	240	1
SCL	53	240	1	96	48	6
TAP	53	288	2
BRK	53	336	3
STR	54	48	3
SCR	54	48	3	96	48	6
TAP	54	96	2
TAP	54	144	1
TAP	54	192	0
STR	54	240	7
SCL	54	240	7	96	48	4
TAP	54	288	0
BRK	54	336	1
STR	55	48	2
SCL	55	48	2	96	48	7
TAP	55	96	3
TAP	55	144	4
TAP	55	192	5
STR	55	240	6
SCR	55	240	6	96	48	1
TAP	55	288	5
BRK	55	336	4
STR	56	48	4
SCL	56	48	4	96	48	1
TAP	56	96	5
TAP	56	144	6
TAP	56	192	7
STR	56	240	0
SCR	56	240	0	96	48	3
TAP	56	288	7
TAP	56	336	6
STR	57	48	6
SCL	57	48	6	96	48	3
TAP	57	96	7
TAP	57	144	0
TAP	57	192	1
STR	57	240	2
SCR	57	240	2	96	48	5
TAP	57	288	1
STR	57	336	0
SI_	57	336	0	96	48	4

T_REC_TAP	219
T_REC_BRK	13
T_REC_XTP	0
T_REC_HLD	29
T_REC_XHO	0
T_REC_STR	65
T_REC_BST	0
T_REC_XST	0
T_REC_TTP	0
T_REC_THO	0
T_REC_SLD	65
T_REC_ALL	391
T_NUM_TAP	284
T_NUM_BRK	13
T_NUM_HLD	29
T_NUM_SLD	65
T_NUM_ALL	391
T_JUDGE_TAP	297
T_JUDGE_HLD	100
T_JUDGE_SLD	65
T_JUDGE_ALL	462
TTM_EACHPAIRS	45
TTM_SCR_TAP	142000
TTM_SCR_BRK	33800
TTM_SCR_HLD	29000
TTM_SCR_SLD	97500
TTM_SCR_ALL	302300
TTM_SCR_S	292000
TTM_SCR_SS	301000
TTM_RAT_ACV	10043

