VERSION	0.00.00	1.03.00
FES_MODE	0
BPM_DEF	170.000	170.000	170.000	170.000
MET_DEF	4	4
RESOLUTION	384
CLK_DEF	384
COMPATIBLE_CODE	MA2

BPM	0	0	170.000
MET	0	0	4	4

HLD	2	0	2	768
HLD	4	0	1	768
HLD	6	0	0	768
TAP	8	0	5
TAP	8	96	6
TAP	8	192	7
TAP	8	288	0
BRK	9	0	0
BRK	9	0	7
HLD	10	0	7	96
TAP	10	96	6
HLD	10	192	0	96
TAP	10	288	1
TAP	11	0	2
TAP	11	96	4
TAP	11	192	6
TAP	11	288	0
HLD	12	0	3	96
TAP	12	96	2
HLD	12	192	4	96
TAP	12	288	5
TAP	13	0	6
TAP	13	96	4
TAP	13	192	2
TAP	13	288	0
HLD	14	0	6	96
TAP	14	96	5
HLD	14	192	1	96
TAP	14	288	2
TAP	15	0	0
TAP	15	96	7
HLD	15	192	6	96
STR	16	0	1
SI_	16	0	1	96	48	5
STR	16	192	7
SI_	16	192	7	96	48	3
TAP	17	0	0
TAP	17	96	1
TAP	17	192	2
BRK	17	288	0
BRK	17	288	7
TAP	18	0	0
TAP	18	0	1
TAP	18	144	4
TAP	18	144	5
TAP	18	288	0
TAP	18	288	1
TAP	19	48	6
TAP	19	48	7
TAP	19	192	2
TAP	19	192	3
TAP	19	288	6
TAP	19	288	7
TAP	20	0	0
TAP	20	0	7
TAP	20	144	4
TAP	20	144	5
TAP	20	288	2
TAP	20	288	3
TAP	21	48	6
TAP	21	48	7
TAP	21	192	0
TAP	21	192	1
TAP	21	288	6
TAP	21	288	7
TAP	22	0	0
TAP	22	0	3
TAP	22	144	2
TAP	22	144	5
TAP	22	288	4
TAP	22	288	7
TAP	23	48	1
TAP	23	48	6
TAP	23	192	4
TAP	23	192	7
TAP	23	288	2
TAP	23	288	5
TAP	24	0	0
TAP	24	0	3
TAP	24	144	1
TAP	24	144	6
TAP	24	288	0
TAP	24	288	2
TAP	25	48	2
TAP	25	48	4
TAP	25	192	6
TAP	25	192	7
BRK	25	288	0
BRK	25	288	1
TAP	26	0	0
TAP	26	96	2
TAP	26	192	4
TAP	26	288	6
TAP	27	0	7
TAP	27	96	5
TAP	27	192	3
TAP	27	288	1
TAP	28	0	0
TAP	28	96	7
TAP	28	192	6
TAP	28	288	6
TAP	29	0	7
TAP	29	96	0
TAP	29	192	1
TAP	29	288	2
HLD	30	0	3	384
HLD	31	0	6	384
STR	32	0	0
SI_	32	0	0	96	192	4
TAP	33	0	6
TAP	33	48	6
HLD	33	144	7	192
TAP	33	240	2
TAP	33	288	1
BRK	33	336	0
TAP	34	144	6
TAP	34	192	7
HLD	34	240	0	96
HLD	34	336	2	96
HLD	35	48	0	96
HLD	35	144	6	96
STR	35	240	0
SCL	35	240	0	96	48	5
TAP	36	144	1
TAP	36	192	0
HLD	36	240	7	96
HLD	36	336	5	96
HLD	37	48	7	96
HLD	37	144	1	96
STR	37	240	7
SCR	37	240	7	96	48	2
TAP	38	144	5
TAP	38	192	3
HLD	38	240	4	96
HLD	38	336	1	96
TAP	39	48	7
HLD	39	144	0	96
HLD	39	240	6	96
HLD	39	336	3	96
TAP	40	48	7
TAP	40	96	7
STR	40	336	4
SI_	40	336	4	96	240	1
STR	40	336	5
SI_	40	336	5	96	240	0
TAP	42	144	1
TAP	42	192	0
HLD	42	240	7	192
TAP	42	336	4
STR	43	48	4
SI_	43	48	4	96	96	0
TAP	43	240	7
TAP	43	288	7
BRK	43	336	7
TAP	44	144	6
TAP	44	192	7
HLD	44	240	0	192
TAP	44	336	3
STR	45	48	3
SI_	45	48	3	96	96	7
TAP	45	240	0
TAP	45	288	0
BRK	45	336	0
TAP	46	144	2
TAP	46	192	3
TAP	46	240	4
TAP	46	336	2
TAP	47	48	0
TAP	47	144	6
TAP	47	240	0
TAP	47	336	2
TAP	48	48	4
TAP	48	96	4
TAP	48	336	1
TAP	49	0	1
TAP	49	96	7
TAP	49	144	7
TAP	49	240	0
TAP	49	336	6
TAP	50	48	0
TAP	50	96	0
TAP	50	288	7
STR	50	336	7
SI_	50	336	7	96	144	2
TAP	51	288	1
STR	51	336	1
SI_	51	336	1	96	144	4
TAP	52	288	6
TAP	52	336	6
TAP	53	96	5
TAP	53	144	5
STR	53	240	5
SI_	53	240	5	96	144	0
TAP	54	240	7
TAP	54	288	7
STR	54	336	7
SCL	54	336	7	96	144	4
TAP	55	288	0
STR	55	336	0
SCR	55	336	0	96	144	3
TAP	56	288	3
TAP	56	288	4
STR	56	336	3
SCL	56	336	3	96	144	0
STR	56	336	4
SCR	56	336	4	96	144	7
HLD	58	0	5	144
HLD	58	144	6	144
TAP	58	288	7
TAP	59	0	0
TAP	59	48	0
TAP	59	96	1
TAP	59	144	1
HLD	59	192	2	96
HLD	59	288	3	96
HLD	60	0	2	144
HLD	60	144	1	144
TAP	60	288	0
TAP	61	0	7
TAP	61	48	7
TAP	61	96	6
TAP	61	144	6
HLD	61	192	5	96
HLD	61	288	4	96
BRK	62	0	7

T_REC_TAP	147
T_REC_BRK	10
T_REC_XTP	0
T_REC_HLD	36
T_REC_XHO	0
T_REC_STR	16
T_REC_BST	0
T_REC_XST	0
T_REC_TTP	0
T_REC_THO	0
T_REC_SLD	16
T_REC_ALL	225
T_NUM_TAP	163
T_NUM_BRK	10
T_NUM_HLD	36
T_NUM_SLD	16
T_NUM_ALL	225
T_JUDGE_TAP	173
T_JUDGE_HLD	136
T_JUDGE_SLD	16
T_JUDGE_ALL	325
TTM_EACHPAIRS	29
TTM_SCR_TAP	81500
TTM_SCR_BRK	26000
TTM_SCR_HLD	36000
TTM_SCR_SLD	24000
TTM_SCR_ALL	167500
TTM_SCR_S	161550
TTM_SCR_SS	166500
TTM_RAT_ACV	10060

