VERSION	0.00.00	1.03.00
FES_MODE	0
BPM_DEF	170.000	170.000	170.000	170.000
MET_DEF	4	4
RESOLUTION	384
CLK_DEF	384
COMPATIBLE_CODE	MA2

BPM	0	0	170.000
MET	0	0	4	4

HLD	2	0	0	672
TAP	3	288	7
HLD	4	0	7	672
TAP	5	288	1
HLD	6	0	1	672
TAP	7	288	6
HLD	8	0	6	288
TAP	8	288	1
BRK	9	0	1
BRK	9	0	6
TAP	10	96	0
TAP	10	288	0
TAP	11	96	2
TAP	11	288	2
TAP	12	96	4
TAP	12	288	4
TAP	13	96	6
TAP	13	288	6
TAP	14	0	5
TAP	14	96	4
TAP	14	144	4
TAP	14	240	3
TAP	14	288	3
TAP	15	0	2
HLD	15	48	2	144
TAP	15	192	1
TAP	15	288	0
TAP	16	0	2
TAP	16	96	3
TAP	16	144	3
TAP	16	240	4
TAP	16	288	4
TAP	17	0	5
TAP	17	48	5
TAP	17	144	6
HLD	17	192	6	96
BRK	17	288	7
TAP	18	0	0
TAP	18	96	1
HLD	18	144	1	144
TAP	19	0	2
TAP	19	96	3
HLD	19	144	3	144
TAP	20	0	0
TAP	20	96	7
HLD	20	144	7	144
TAP	21	0	7
TAP	21	96	6
HLD	21	144	6	144
STR	22	0	5
SI_	22	0	5	96	192	1
STR	23	0	3
SI_	23	0	3	96	192	7
HLD	24	0	6	384
BRK	25	0	0
TAP	26	0	7
TAP	26	96	6
HLD	26	144	6	144
TAP	27	0	5
TAP	27	96	4
HLD	27	144	4	144
TAP	28	0	7
TAP	28	96	0
HLD	28	144	0	144
TAP	29	0	0
TAP	29	96	1
HLD	29	144	1	144
HLD	30	0	0	288
TAP	30	288	7
HLD	30	336	7	144
TAP	31	96	6
TAP	31	192	5
TAP	31	288	4
STR	32	0	3
SI_	32	0	3	96	192	0
TAP	33	0	0
TAP	33	0	7
TAP	33	48	0
TAP	33	48	7
BRK	33	144	1
BRK	33	144	6
BRK	33	240	1
BRK	33	240	6
STR	34	0	2
SI_	34	0	2	96	96	7
TAP	34	336	6
TAP	35	48	6
HLD	35	144	5	240
STR	36	0	4
SI_	36	0	4	96	96	0
TAP	36	336	0
TAP	37	48	0
HLD	37	144	1	240
STR	38	0	2
SI_	38	0	2	96	96	7
TAP	38	336	5
TAP	39	48	7
HLD	39	144	1	192
TAP	39	336	0
TAP	40	48	7
HLD	40	96	7	240
TAP	40	336	0
BRK	41	48	7
BRK	41	96	7
TAP	41	288	1
HLD	41	336	1	240
TAP	42	192	2
TAP	42	240	2
TAP	42	336	0
TAP	43	48	7
HLD	43	144	6	144
TAP	43	288	5
HLD	43	336	5	240
TAP	44	192	4
TAP	44	240	4
TAP	44	336	6
TAP	45	48	7
HLD	45	144	0	144
TAP	45	288	1
HLD	45	336	1	240
TAP	46	192	2
TAP	46	240	2
TAP	46	336	1
TAP	47	48	7
HLD	47	144	5	192
HLD	47	336	3	96
TAP	48	48	2
TAP	48	96	2
STR	49	0	0
SI_	49	0	0	96	192	4
TAP	50	288	7
HLD	50	336	7	336
TAP	51	288	5
HLD	51	336	5	336
STR	53	0	4
SI_	53	0	4	96	192	0
TAP	54	288	1
HLD	54	336	1	336
TAP	55	288	3
HLD	55	336	3	336
TAP	56	288	0
HLD	56	336	0	192
HLD	57	144	7	240
STR	58	0	0
SI_	58	0	0	96	192	3

T_REC_TAP	83
T_REC_BRK	10
T_REC_XTP	0
T_REC_HLD	34
T_REC_XHO	0
T_REC_STR	9
T_REC_BST	0
T_REC_XST	0
T_REC_TTP	0
T_REC_THO	0
T_REC_SLD	9
T_REC_ALL	145
T_NUM_TAP	92
T_NUM_BRK	10
T_NUM_HLD	34
T_NUM_SLD	9
T_NUM_ALL	145
T_JUDGE_TAP	102
T_JUDGE_HLD	177
T_JUDGE_SLD	9
T_JUDGE_ALL	288
TTM_EACHPAIRS	5
TTM_SCR_TAP	46000
TTM_SCR_BRK	26000
TTM_SCR_HLD	34000
TTM_SCR_SLD	13500
TTM_SCR_ALL	119500
TTM_SCR_S	114950
TTM_SCR_SS	118500
TTM_RAT_ACV	10084

