VERSION	0.00.00	1.03.00
FES_MODE	0
BPM_DEF	155.000	155.000	155.000	155.000
MET_DEF	4	4
RESOLUTION	384
CLK_DEF	384
COMPATIBLE_CODE	MA2

BPM	0	0	155.000
MET	0	0	4	4

TAP	1	288	0
TAP	1	288	7
STR	2	0	3
SI_	2	0	3	96	48	0
TAP	2	96	2
TAP	2	96	3
STR	2	192	4
SI_	2	192	4	96	48	7
TAP	2	288	4
TAP	2	288	5
STR	3	0	3
SI_	3	0	3	96	48	0
TAP	3	96	2
TAP	3	96	3
STR	3	192	4
SI_	3	192	4	96	48	7
TAP	3	288	4
TAP	3	288	5
STR	4	0	3
SI_	4	0	3	96	48	0
TAP	4	96	2
TAP	4	96	3
STR	4	192	4
SI_	4	192	4	96	48	7
TAP	4	288	4
TAP	4	288	5
STR	5	0	3
SI_	5	0	3	96	48	0
TAP	5	96	2
TAP	5	96	3
HLD	5	192	4	96
TAP	5	240	7
TAP	5	288	7
STR	6	0	4
SI_	6	0	4	96	48	7
TAP	6	96	4
TAP	6	96	5
STR	6	192	3
SI_	6	192	3	96	48	0
TAP	6	288	2
TAP	6	288	3
STR	7	0	4
SI_	7	0	4	96	48	7
TAP	7	96	4
TAP	7	96	5
STR	7	192	3
SI_	7	192	3	96	48	0
TAP	7	288	2
TAP	7	288	3
HLD	8	0	4	192
TAP	8	96	5
HLD	8	192	3	192
TAP	8	288	2
TAP	9	0	7
TAP	9	24	6
TAP	9	48	5
TAP	9	72	4
TAP	9	96	3
TAP	9	120	2
TAP	9	144	1
TAP	9	168	0
TAP	9	192	7
BRK	9	240	0
BRK	9	288	0
TAP	10	0	6
TAP	10	96	6
TAP	10	192	1
TAP	10	216	2
TAP	10	240	3
TAP	10	264	4
TAP	10	288	5
TAP	11	0	1
TAP	11	96	1
TAP	11	192	6
TAP	11	216	5
TAP	11	240	4
TAP	11	264	3
TAP	11	288	2
TAP	12	0	0
TAP	12	24	1
TAP	12	48	2
TAP	12	72	3
TAP	12	96	4
TAP	12	192	7
TAP	12	216	6
TAP	12	240	5
TAP	12	264	4
TAP	12	288	3
TAP	13	0	1
TAP	13	96	6
TAP	13	192	1
TAP	13	216	2
TAP	13	240	3
TAP	13	264	4
TAP	13	288	5
TAP	13	312	6
TAP	13	336	7
TAP	13	360	0
STR	14	0	1
SI_	14	0	1	96	192	4
STR	14	144	0
SI_	14	144	0	96	192	5
STR	16	0	0
SI_	16	0	0	96	192	3
STR	16	192	7
SI_	16	192	7	96	192	4
STR	17	0	0
SCR	17	0	0	96	96	3
STR	17	144	7
SCL	17	144	7	96	96	4
TAP	18	0	2
TAP	18	24	3
TAP	18	48	2
TAP	18	72	3
TAP	18	96	2
TAP	18	192	0
TAP	18	192	7
TAP	18	288	0
TAP	18	288	7
TAP	19	0	5
TAP	19	24	4
TAP	19	48	5
TAP	19	72	4
TAP	19	96	5
TAP	19	192	0
TAP	19	192	7
TAP	19	288	0
TAP	19	288	7
TAP	20	0	2
TAP	20	24	4
TAP	20	48	2
TAP	20	72	4
TAP	20	96	2
TAP	20	192	5
TAP	20	216	3
TAP	20	240	5
TAP	20	264	3
TAP	20	288	5
TAP	21	0	1
TAP	21	24	4
TAP	21	48	1
TAP	21	72	4
TAP	21	96	2
TAP	21	120	5
TAP	21	144	2
TAP	21	168	5
TAP	21	192	3
TAP	21	216	6
TAP	21	240	3
TAP	21	264	6
STR	21	288	4
SI_	21	288	4	96	192	1
STR	22	144	0
SI_	22	144	0	96	192	5
TAP	24	0	1
TAP	24	96	1
TAP	24	120	0
TAP	24	144	7
TAP	24	168	6
HLD	24	192	5	96
TAP	25	0	6
TAP	25	96	6
TAP	25	120	7
TAP	25	144	0
TAP	25	168	1
HLD	25	192	2	96
TAP	26	0	4
TAP	26	24	3
TAP	26	48	2
TAP	26	72	1
TAP	26	96	0
TAP	26	120	7
TAP	26	144	6
TAP	26	168	5
TAP	26	192	4
TAP	26	288	1
TAP	26	288	7
TAP	27	0	3
TAP	27	24	4
TAP	27	48	5
TAP	27	72	6
TAP	27	96	7
TAP	27	120	0
TAP	27	144	1
TAP	27	168	2
TAP	27	192	3
TAP	27	288	0
TAP	27	288	6
TAP	28	0	6
TAP	28	24	5
TAP	28	48	4
TAP	28	72	3
TAP	28	96	2
TAP	28	120	1
TAP	28	144	0
TAP	28	168	7
TAP	28	192	6
TAP	28	288	0
TAP	28	288	4
TAP	29	0	1
TAP	29	24	2
TAP	29	48	3
TAP	29	72	4
TAP	29	96	5
TAP	29	120	6
TAP	29	144	7
TAP	29	168	0
TAP	29	192	1
TAP	29	288	3
TAP	29	288	7
TAP	30	0	0
TAP	30	24	7
TAP	30	48	6
TAP	30	72	5
TAP	30	96	4
TAP	30	120	3
TAP	30	144	2
TAP	30	168	1
TAP	30	192	0
TAP	30	288	3
TAP	30	288	5
TAP	31	0	7
TAP	31	24	0
TAP	31	48	1
TAP	31	72	2
TAP	31	96	3
TAP	31	120	4
TAP	31	144	5
TAP	31	168	6
TAP	31	192	7
TAP	31	288	2
TAP	31	288	4
TAP	32	0	1
TAP	32	24	0
TAP	32	48	7
TAP	32	72	6
TAP	32	96	5
TAP	32	120	4
TAP	32	144	3
TAP	32	168	2
TAP	32	192	6
TAP	32	216	7
TAP	32	240	0
TAP	32	264	1
TAP	32	288	2
TAP	32	312	3
TAP	32	336	4
TAP	32	360	5
TAP	33	0	0
TAP	33	96	7
TAP	33	192	3
TAP	33	288	4
HLD	34	0	1	288
TAP	34	144	2
HLD	34	192	6	288
TAP	34	336	3
HLD	35	0	7	288
TAP	35	144	0
HLD	35	192	4	288
TAP	35	336	5
HLD	36	0	1	288
TAP	36	144	6
HLD	36	192	2	624
TAP	37	0	3
TAP	37	96	1
TAP	37	192	3
HLD	37	288	1	336
TAP	38	96	3
HLD	38	144	7	288
TAP	38	288	4
HLD	38	336	0	336
TAP	39	96	1
HLD	39	144	5	144
STR	40	0	6
SI_	40	0	6	96	576	1
STR	40	192	2
SI_	40	192	2	96	48	5
STR	41	0	7
SI_	41	0	7	96	192	4
BRK	42	0	0
BRK	42	96	0
STR	42	192	0
SI_	42	192	0	96	48	4
STR	42	240	6
SI_	42	240	6	96	48	2
TAP	42	288	0
TAP	42	336	6
TAP	43	0	0
STR	43	192	7
SI_	43	192	7	96	48	3
STR	43	240	1
SI_	43	240	1	96	48	5
TAP	43	288	7
TAP	43	336	1
TAP	44	0	7
TAP	44	192	0
TAP	44	240	4
TAP	44	288	7
TAP	44	336	3
STR	45	0	0
SCL	45	0	0	96	96	5
STR	45	96	5
SI_	45	96	5	96	96	0
STR	45	192	0
SCR	45	192	0	96	96	3
STR	45	288	3
SI_	45	288	3	96	96	0
TAP	46	0	0
STR	46	192	6
SI_	46	192	6	96	96	2
TAP	46	240	0
TAP	46	288	4
TAP	46	336	0
TAP	47	0	6
STR	47	192	1
SI_	47	192	1	96	96	5
TAP	47	240	7
TAP	47	288	3
TAP	47	336	7
TAP	48	0	1
TAP	48	192	7
TAP	48	240	3
TAP	48	288	0
TAP	48	336	4
STR	49	0	7
SI_	49	0	7	96	96	3
STR	49	96	3
SCR	49	96	3	96	96	6
STR	49	192	6
SCR	49	192	6	96	96	1
STR	49	288	1
SCR	49	288	1	96	96	4
STR	50	0	4
SI_	50	0	4	96	96	0
HLD	50	192	7	96
HLD	50	288	0	48
TAP	50	336	1
TAP	50	360	2
TAP	51	0	3
HLD	51	192	0	96
HLD	51	288	7	48
TAP	51	336	6
TAP	51	360	5
TAP	52	0	4
TAP	52	192	1
TAP	52	240	0
TAP	52	288	7
TAP	52	336	6
HLD	53	0	5	48
TAP	53	72	6
HLD	53	96	7	48
TAP	53	168	0
HLD	53	192	1	48
TAP	53	264	2
HLD	53	288	3	48
TAP	53	360	4
HLD	54	0	2	48
TAP	54	72	1
HLD	54	96	0	48
TAP	54	168	7
HLD	54	192	6	48
TAP	54	264	5
HLD	54	288	4	48
TAP	54	360	3
HLD	55	0	0	144
TAP	55	144	4
TAP	55	192	4
TAP	55	192	5
HLD	56	0	7	144
TAP	56	144	3
TAP	56	192	2
TAP	56	192	3
STR	56	360	7
SI_	56	360	7	96	96	3
BRK	57	0	7
STR	57	72	3
SI_	57	72	3	96	96	6
BRK	57	96	3
STR	57	168	6
SI_	57	168	6	96	96	1
BRK	57	192	6
STR	57	264	1
SI_	57	264	1	96	96	4
BRK	57	288	1
STR	57	360	4
SI_	57	360	4	96	120	0
BRK	58	0	4
STR	58	288	0
SCL	58	288	0	96	576	5
STR	58	288	7
SCR	58	288	7	96	576	2
TAP	59	0	0
TAP	59	0	7
STR	60	336	1
SI_	60	336	1	96	48	6
HLD	61	0	1	96
STR	61	144	1
SI_	61	144	1	96	48	4
HLD	61	192	1	96
STR	61	336	6
SI_	61	336	6	96	48	1
HLD	62	0	6	96
STR	62	144	6
SI_	62	144	6	96	48	3
HLD	62	192	6	96
STR	62	360	0
SI_	62	360	0	96	96	4
BRK	63	0	0
STR	63	72	4
SI_	63	72	4	96	96	1
BRK	63	96	4
STR	63	168	1
SI_	63	168	1	96	96	6
BRK	63	192	1
STR	63	264	6
SI_	63	264	6	96	96	3
BRK	63	288	6
STR	63	360	3
SI_	63	360	3	96	120	7
BRK	64	0	3
STR	65	0	3
SI_	65	0	3	96	48	7
TAP	65	96	2
TAP	65	96	3
STR	65	192	4
SI_	65	192	4	96	48	0
TAP	65	288	4
TAP	65	288	5
STR	66	0	3
SI_	66	0	3	96	48	7
TAP	66	96	2
TAP	66	96	3
STR	66	192	4
SI_	66	192	4	96	48	0
TAP	66	288	4
TAP	66	288	5
STR	67	0	2
SI_	67	0	2	96	48	7
TAP	67	96	2
TAP	67	96	3
STR	67	192	5
SI_	67	192	5	96	48	0
TAP	67	288	4
TAP	67	288	5
STR	68	0	2
SI_	68	0	2	96	48	7
TAP	68	96	2
TAP	68	96	3
STR	68	192	5
SI_	68	192	5	96	48	0
TAP	68	288	4
TAP	68	288	5
STR	69	0	1
SCL	69	0	1	96	48	6
BRK	69	96	1
TAP	69	96	4
STR	69	192	6
SCR	69	192	6	96	48	1
TAP	69	288	3
BRK	69	288	6
STR	70	0	1
SCL	70	0	1	96	48	6
BRK	70	96	1
TAP	70	96	4
STR	70	192	6
SCR	70	192	6	96	48	1
TAP	70	288	3
BRK	70	288	6
STR	71	0	1
SCL	71	0	1	96	48	6
BRK	71	96	1
TAP	71	96	4
STR	71	192	6
SCR	71	192	6	96	48	1
TAP	71	288	3
BRK	71	288	6
TAP	72	0	0
TAP	72	0	4
TAP	72	64	3
TAP	72	64	7
TAP	72	128	2
TAP	72	128	6
TAP	72	192	1
TAP	72	192	5
TAP	72	256	2
TAP	72	256	6
TAP	72	320	3
TAP	72	320	7
STR	73	0	0
SCR	73	0	0	96	192	3
STR	73	0	4
SCR	73	0	4	96	192	7

T_REC_TAP	301
T_REC_BRK	20
T_REC_XTP	0
T_REC_HLD	33
T_REC_XHO	0
T_REC_STR	69
T_REC_BST	0
T_REC_XST	0
T_REC_TTP	0
T_REC_THO	0
T_REC_SLD	69
T_REC_ALL	492
T_NUM_TAP	370
T_NUM_BRK	20
T_NUM_HLD	33
T_NUM_SLD	69
T_NUM_ALL	492
T_JUDGE_TAP	390
T_JUDGE_HLD	108
T_JUDGE_SLD	69
T_JUDGE_ALL	567
TTM_EACHPAIRS	47
TTM_SCR_TAP	185000
TTM_SCR_BRK	52000
TTM_SCR_HLD	33000
TTM_SCR_SLD	103500
TTM_SCR_ALL	373500
TTM_SCR_S	360400
TTM_SCR_SS	371500
TTM_RAT_ACV	10053

