VERSION	0.00.00	1.03.00
FES_MODE	0
BPM_DEF	155.000	155.000	155.000	155.000
MET_DEF	4	4
RESOLUTION	384
CLK_DEF	384
COMPATIBLE_CODE	MA2

BPM	0	0	155.000
MET	0	0	4	4

TAP	1	0	2
TAP	1	96	1
TAP	1	192	0
TAP	1	288	0
TAP	1	288	7
TAP	2	0	1
TAP	2	96	5
TAP	2	192	1
TAP	2	288	5
TAP	3	0	6
TAP	3	96	2
TAP	3	192	6
TAP	3	288	2
TAP	4	0	1
TAP	4	96	4
TAP	4	96	5
TAP	4	192	1
TAP	4	288	4
TAP	4	288	5
TAP	5	0	6
TAP	5	96	2
TAP	5	96	3
TAP	5	192	0
TAP	5	192	7
TAP	6	0	5
TAP	6	96	4
TAP	6	96	5
TAP	6	192	2
TAP	6	288	2
TAP	6	288	3
TAP	7	0	5
TAP	7	96	4
TAP	7	96	5
TAP	7	192	2
TAP	7	288	2
TAP	7	288	3
HLD	8	0	1	144
HLD	8	144	6	144
TAP	9	48	0
TAP	9	96	3
TAP	9	240	4
TAP	9	240	5
BRK	9	288	2
BRK	9	288	3
STR	10	0	1
SI_	10	0	1	96	192	6
STR	11	0	6
SI_	11	0	6	96	192	1
TAP	12	0	2
TAP	12	96	3
TAP	12	192	4
TAP	12	288	5
TAP	13	0	6
TAP	13	96	7
TAP	13	192	0
TAP	13	288	1
HLD	14	0	2	144
HLD	14	144	4	432
TAP	16	0	6
TAP	16	192	0
TAP	17	0	6
TAP	17	0	7
BRK	17	144	0
BRK	17	144	1
TAP	18	0	1
TAP	18	96	0
STR	18	192	7
SI_	18	192	7	96	96	4
TAP	19	0	5
TAP	19	96	4
STR	19	192	3
SI_	19	192	3	96	96	0
TAP	20	0	7
TAP	20	96	6
STR	20	192	5
SI_	20	192	5	96	96	2
TAP	21	0	3
TAP	21	96	2
STR	21	192	1
SI_	21	192	1	96	48	6
HLD	22	0	7	144
HLD	22	144	0	432
TAP	23	336	3
TAP	24	0	4
HLD	24	48	5	96
HLD	24	144	1	192
TAP	24	336	0
TAP	25	0	7
STR	25	48	0
SI_	25	48	0	96	96	3
STR	25	144	4
SI_	25	144	4	96	96	7
TAP	26	0	1
TAP	26	144	4
TAP	26	192	3
TAP	26	288	7
TAP	27	0	6
TAP	27	144	3
TAP	27	192	4
BRK	27	288	0
HLD	28	0	1	144
TAP	28	144	4
TAP	28	192	3
TAP	28	288	7
HLD	29	0	6	144
TAP	29	144	3
TAP	29	192	4
BRK	29	288	0
HLD	30	0	1	144
TAP	30	144	4
TAP	30	192	3
TAP	30	288	6
TAP	30	288	7
HLD	31	0	6	144
TAP	31	144	3
TAP	31	192	4
BRK	31	288	0
BRK	31	288	1
TAP	32	0	1
TAP	32	144	4
TAP	32	192	3
TAP	32	288	0
TAP	32	288	7
HLD	33	0	7	96
HLD	33	96	5	96
HLD	33	192	3	96
BRK	33	288	1
TAP	34	0	4
TAP	34	0	5
TAP	34	96	2
TAP	34	96	3
TAP	34	192	1
TAP	34	288	6
TAP	35	0	2
TAP	35	0	3
TAP	35	96	4
TAP	35	96	5
TAP	35	192	6
TAP	35	288	0
STR	36	0	5
SCL	36	0	5	96	96	2
TAP	36	192	1
TAP	36	288	7
TAP	37	0	0
TAP	37	0	1
TAP	37	96	4
TAP	37	96	5
TAP	37	192	2
TAP	37	192	3
HLD	37	288	6	288
HLD	37	288	7	288
TAP	39	0	4
TAP	39	0	5
TAP	39	96	2
TAP	39	96	3
TAP	39	192	0
TAP	39	192	1
TAP	40	0	0
TAP	40	0	7
TAP	40	96	1
TAP	40	96	6
TAP	40	192	2
TAP	40	192	5
TAP	40	288	3
TAP	40	288	4
TAP	41	0	2
TAP	41	48	2
TAP	41	96	3
TAP	41	144	3
TAP	41	192	4
TAP	41	240	4
TAP	41	288	5
BRK	42	0	0
BRK	42	96	0
TAP	43	0	0
TAP	43	0	7
TAP	43	144	1
TAP	43	240	2
TAP	43	288	3
TAP	43	336	2
TAP	44	0	4
TAP	44	0	5
TAP	44	144	4
TAP	44	192	3
TAP	44	240	2
TAP	44	288	1
TAP	44	336	0
HLD	45	0	7	96
HLD	45	96	5	96
HLD	45	192	3	96
TAP	45	288	1
BRK	46	0	1
BRK	46	0	6
HLD	46	144	2	96
TAP	46	240	7
STR	46	288	7
SCR	46	288	7	96	48	2
HLD	47	144	5	96
TAP	47	240	0
STR	47	288	0
SCL	47	288	0	96	48	5
HLD	48	144	1	96
TAP	48	240	6
TAP	48	288	6
TAP	49	0	4
TAP	49	0	5
TAP	49	96	1
TAP	49	96	6
TAP	49	192	2
TAP	49	192	5
TAP	49	288	1
TAP	49	288	6
BRK	50	0	6
BRK	50	96	6
TAP	50	192	3
TAP	50	192	4
TAP	50	288	1
TAP	50	288	6
TAP	51	0	3
TAP	51	0	4
TAP	51	192	0
TAP	51	192	7
TAP	51	288	0
TAP	52	0	3
TAP	52	192	3
TAP	52	288	4
STR	53	0	0
SI_	53	0	0	96	48	3
STR	53	192	7
SI_	53	192	7	96	48	4
TAP	54	0	3
TAP	54	0	4
HLD	54	96	2	96
HLD	54	192	3	96
HLD	54	288	4	96
HLD	55	0	5	144
TAP	55	144	3
TAP	55	192	3
TAP	55	336	0
TAP	56	0	7
TAP	56	144	3
TAP	56	192	4
TAP	57	0	4
TAP	57	0	5
TAP	57	96	2
TAP	57	96	3
TAP	57	192	6
TAP	57	288	6
STR	58	0	1
SCL	58	0	1	96	144	6
STR	58	288	7
SI_	58	288	7	96	384	4
HLD	60	96	5	96
HLD	60	192	4	96
HLD	60	288	3	96
HLD	61	0	2	144
TAP	61	144	4
TAP	61	192	4
TAP	61	336	7
TAP	62	0	0
TAP	62	144	4
TAP	62	192	3
TAP	63	0	4
TAP	63	0	5
TAP	63	96	2
TAP	63	96	3
TAP	63	192	6
TAP	63	288	6
STR	64	0	1
SCL	64	0	1	96	144	6
STR	64	288	7
SI_	64	288	7	96	384	4
TAP	66	0	1
TAP	66	96	2
TAP	66	192	3
TAP	66	288	4
TAP	67	0	5
TAP	67	96	6
TAP	67	192	7
TAP	67	288	0
TAP	68	48	4
TAP	68	96	4
TAP	68	240	2
TAP	68	240	3
BRK	68	288	2
BRK	68	288	3
TAP	69	0	5
TAP	69	96	4
TAP	69	96	5
TAP	69	192	2
TAP	69	288	2
TAP	69	288	3
TAP	70	0	6
TAP	70	96	6
TAP	70	96	7
TAP	70	192	1
TAP	70	288	0
TAP	70	288	1
HLD	71	0	1	144
HLD	71	144	6	144
TAP	72	0	0
TAP	72	0	1
TAP	72	64	0
TAP	72	64	1
TAP	72	128	0
TAP	72	128	1
TAP	72	192	6
TAP	72	192	7
TAP	72	256	6
TAP	72	256	7
TAP	72	320	6
TAP	72	320	7
BRK	73	0	0
BRK	73	0	7

T_REC_TAP	228
T_REC_BRK	19
T_REC_XTP	0
T_REC_HLD	33
T_REC_XHO	0
T_REC_STR	17
T_REC_BST	0
T_REC_XST	0
T_REC_TTP	0
T_REC_THO	0
T_REC_SLD	17
T_REC_ALL	314
T_NUM_TAP	245
T_NUM_BRK	19
T_NUM_HLD	33
T_NUM_SLD	17
T_NUM_ALL	314
T_JUDGE_TAP	264
T_JUDGE_HLD	102
T_JUDGE_SLD	17
T_JUDGE_ALL	383
TTM_EACHPAIRS	60
TTM_SCR_TAP	122500
TTM_SCR_BRK	49400
TTM_SCR_HLD	33000
TTM_SCR_SLD	25500
TTM_SCR_ALL	230400
TTM_SCR_S	221650
TTM_SCR_SS	228500
TTM_RAT_ACV	10083

