VERSION	0.00.00	1.03.00
FES_MODE	0
BPM_DEF	155.000	155.000	155.000	155.000
MET_DEF	4	4
RESOLUTION	384
CLK_DEF	384
COMPATIBLE_CODE	MA2

BPM	0	0	155.000
MET	0	0	4	4

TAP	2	96	1
TAP	2	288	1
TAP	3	96	6
TAP	3	288	6
TAP	4	96	1
TAP	4	96	2
TAP	4	288	1
TAP	4	288	2
TAP	5	96	6
TAP	5	96	7
BRK	5	192	6
BRK	5	192	7
TAP	6	0	1
TAP	6	96	1
TAP	6	192	0
TAP	6	288	0
TAP	7	0	7
TAP	7	96	7
TAP	7	192	6
TAP	7	288	6
HLD	8	0	7	144
HLD	8	144	0	144
TAP	9	48	0
BRK	9	96	0
TAP	9	240	7
BRK	9	288	7
TAP	10	0	0
TAP	10	96	0
TAP	10	192	1
TAP	11	0	2
TAP	11	96	2
TAP	11	192	3
TAP	12	0	4
TAP	12	96	4
TAP	12	192	5
TAP	12	288	5
TAP	13	0	6
TAP	13	96	6
TAP	13	192	7
TAP	13	288	7
STR	14	0	0
SCR	14	0	0	96	384	3
HLD	16	0	6	192
HLD	16	192	1	192
TAP	17	0	7
BRK	17	144	7
TAP	18	0	1
TAP	18	96	1
TAP	18	192	0
TAP	18	288	0
TAP	19	0	6
TAP	19	96	6
TAP	19	192	7
TAP	19	288	7
TAP	20	0	1
TAP	20	96	1
TAP	20	192	2
TAP	20	288	2
TAP	21	0	3
TAP	21	96	3
TAP	21	192	4
TAP	21	288	4
TAP	22	0	5
HLD	22	144	5	432
TAP	24	0	3
TAP	24	96	2
TAP	24	192	1
TAP	24	288	0
TAP	25	0	7
TAP	25	96	6
TAP	25	192	5
TAP	25	288	4
HLD	26	0	3	288
HLD	27	0	2	288
HLD	28	0	4	288
HLD	29	0	5	288
STR	30	0	7
SI_	30	0	7	96	192	3
STR	32	0	2
SI_	32	0	2	96	192	6
TAP	33	0	7
TAP	33	96	7
TAP	33	192	0
BRK	33	288	0
TAP	34	0	1
TAP	34	96	0
TAP	34	192	1
TAP	35	0	6
TAP	35	96	7
TAP	35	192	6
TAP	36	0	0
TAP	36	96	3
TAP	36	192	6
TAP	36	288	1
TAP	37	0	0
TAP	37	0	7
TAP	37	96	1
TAP	37	96	6
TAP	37	192	6
TAP	37	192	7
TAP	37	288	1
TAP	37	288	6
HLD	38	192	2	192
HLD	39	0	4	192
HLD	39	192	6	192
TAP	40	0	7
TAP	40	96	6
TAP	40	192	5
TAP	40	288	4
TAP	41	0	2
TAP	41	0	3
TAP	41	96	2
TAP	41	96	3
TAP	41	192	4
TAP	41	192	5
TAP	41	288	4
TAP	41	288	5
BRK	42	0	0
BRK	42	0	7
BRK	42	96	0
BRK	42	96	7
BRK	43	0	1
TAP	43	192	0
TAP	43	288	7
BRK	44	0	6
TAP	44	192	0
TAP	44	288	7
TAP	45	0	0
TAP	45	0	7
TAP	45	96	6
TAP	45	96	7
TAP	45	192	0
TAP	45	192	7
TAP	45	288	0
TAP	45	288	1
BRK	46	0	1
BRK	46	0	6
TAP	46	192	0
STR	46	288	0
SI_	46	288	0	96	96	4
TAP	47	192	6
STR	47	288	6
SI_	47	288	6	96	96	2
TAP	48	192	1
TAP	48	288	6
TAP	49	0	2
TAP	49	96	4
TAP	49	96	5
TAP	49	192	5
TAP	49	288	2
TAP	49	288	3
TAP	50	0	0
TAP	50	96	0
BRK	51	0	6
TAP	51	192	7
TAP	51	288	0
BRK	52	0	1
TAP	52	192	2
TAP	52	288	1
TAP	53	0	0
TAP	53	96	7
TAP	53	192	6
TAP	53	288	5
TAP	54	0	4
TAP	54	96	5
TAP	54	192	6
TAP	54	288	7
STR	55	0	0
SI_	55	0	0	96	192	3
STR	56	0	7
SI_	56	0	7	96	192	4
TAP	57	0	1
TAP	57	96	1
TAP	57	192	1
TAP	57	288	1
TAP	58	0	0
TAP	58	0	1
STR	58	288	7
SI_	58	288	7	96	192	4
TAP	60	96	4
TAP	60	192	5
TAP	60	288	6
STR	61	0	7
SI_	61	0	7	96	192	3
STR	62	0	0
SI_	62	0	0	96	192	4
TAP	63	0	6
TAP	63	96	6
TAP	63	192	6
TAP	63	288	6
TAP	64	0	6
TAP	64	0	7
STR	64	288	0
SI_	64	288	0	96	192	3
TAP	67	96	0
TAP	67	96	1
TAP	67	288	6
TAP	67	288	7
TAP	68	96	1
TAP	68	96	6
BRK	68	288	0
BRK	68	288	7
TAP	69	96	2
TAP	69	96	3
TAP	69	288	4
TAP	69	288	5
TAP	70	96	2
TAP	70	96	3
TAP	70	288	4
TAP	70	288	5
HLD	71	0	3	144
HLD	71	0	4	144
TAP	72	0	6
TAP	72	192	1
HLD	73	0	0	384
HLD	73	0	7	384

T_REC_TAP	160
T_REC_BRK	18
T_REC_XTP	0
T_REC_HLD	16
T_REC_XHO	0
T_REC_STR	11
T_REC_BST	0
T_REC_XST	0
T_REC_TTP	0
T_REC_THO	0
T_REC_SLD	11
T_REC_ALL	216
T_NUM_TAP	171
T_NUM_BRK	18
T_NUM_HLD	16
T_NUM_SLD	11
T_NUM_ALL	216
T_JUDGE_TAP	189
T_JUDGE_HLD	81
T_JUDGE_SLD	11
T_JUDGE_ALL	281
TTM_EACHPAIRS	33
TTM_SCR_TAP	85500
TTM_SCR_BRK	46800
TTM_SCR_HLD	16000
TTM_SCR_SLD	16500
TTM_SCR_ALL	164800
TTM_SCR_S	158150
TTM_SCR_SS	163000
TTM_RAT_ACV	10110

