VERSION	0.00.00	1.03.00
FES_MODE	0
BPM_DEF	155.000	155.000	155.000	155.000
MET_DEF	4	4
RESOLUTION	384
CLK_DEF	384
COMPATIBLE_CODE	MA2

BPM	0	0	155.000
MET	0	0	4	4

TAP	2	0	1
TAP	2	192	1
TAP	3	0	6
TAP	3	192	6
TAP	4	0	1
TAP	4	192	1
TAP	5	0	6
TAP	5	192	6
TAP	6	0	4
TAP	6	192	3
TAP	7	0	4
TAP	7	192	3
TAP	8	0	2
TAP	8	0	5
TAP	10	0	1
TAP	11	0	6
TAP	12	0	0
TAP	12	0	7
TAP	12	192	3
TAP	12	192	4
STR	14	192	0
SI_	14	192	0	96	288	3
STR	14	192	7
SI_	14	192	7	96	288	4
TAP	16	0	6
TAP	16	192	1
TAP	17	0	0
TAP	17	0	7
TAP	18	192	6
TAP	19	192	1
TAP	19	192	6
TAP	20	0	0
TAP	20	0	7
TAP	20	192	3
TAP	20	192	4
STR	22	192	0
SI_	22	192	0	96	288	3
STR	22	192	7
SI_	22	192	7	96	288	4
TAP	24	0	1
TAP	24	192	6
TAP	25	0	6
TAP	25	192	1
TAP	26	0	2
TAP	26	0	5
STR	26	288	0
SI_	26	288	0	96	288	3
STR	26	288	7
SI_	26	288	7	96	288	4
TAP	28	192	3
TAP	29	0	2
TAP	30	0	6
STR	31	0	4
SI_	31	0	4	96	480	7
HLD	33	0	4	288
STR	34	0	4
SI_	34	0	4	96	192	7
STR	36	0	7
SI_	36	0	7	96	192	4
TAP	37	0	2
TAP	37	0	5
TAP	37	288	1
TAP	37	288	6
STR	38	288	3
SI_	38	288	3	96	288	0
STR	38	288	4
SI_	38	288	4	96	288	7
TAP	40	0	0
TAP	40	0	7
TAP	41	0	1
TAP	41	0	6
BRK	42	0	7
BRK	42	96	7
TAP	42	288	6
TAP	43	0	0
TAP	43	192	1
TAP	43	288	1
TAP	44	0	1
TAP	44	192	2
TAP	44	192	5
TAP	44	288	2
TAP	44	288	5
TAP	45	0	0
TAP	45	192	6
BRK	46	0	6
TAP	47	0	2
TAP	48	0	5
TAP	48	192	3
TAP	49	0	4
BRK	50	0	6
TAP	50	288	1
TAP	50	288	6
TAP	51	288	0
TAP	53	0	1
TAP	54	192	1
TAP	54	192	6
TAP	55	0	5
TAP	55	192	2
TAP	57	0	5
TAP	57	96	2
TAP	57	192	6
TAP	57	288	6
TAP	58	0	2
TAP	58	0	5
STR	58	288	7
SI_	58	288	7	96	576	4
HLD	61	0	0	288
HLD	61	0	7	288
TAP	63	0	5
TAP	63	96	2
TAP	63	192	6
TAP	63	288	6
TAP	64	0	2
TAP	64	0	5
STR	65	0	7
SI_	65	0	7	96	480	4
TAP	67	0	1
TAP	67	192	1
TAP	68	0	6
TAP	68	192	6
TAP	69	0	4
TAP	69	192	3
TAP	70	0	4
TAP	70	192	3
TAP	71	0	2
TAP	71	0	5
TAP	72	0	0
TAP	72	192	2
TAP	72	192	5
HLD	73	0	5	384

T_REC_TAP	96
T_REC_BRK	4
T_REC_XTP	0
T_REC_HLD	4
T_REC_XHO	0
T_REC_STR	13
T_REC_BST	0
T_REC_XST	0
T_REC_TTP	0
T_REC_THO	0
T_REC_SLD	13
T_REC_ALL	130
T_NUM_TAP	109
T_NUM_BRK	4
T_NUM_HLD	4
T_NUM_SLD	13
T_NUM_ALL	130
T_JUDGE_TAP	113
T_JUDGE_HLD	26
T_JUDGE_SLD	13
T_JUDGE_ALL	152
TTM_EACHPAIRS	25
TTM_SCR_TAP	54500
TTM_SCR_BRK	10400
TTM_SCR_HLD	4000
TTM_SCR_SLD	19500
TTM_SCR_ALL	88400
TTM_SCR_S	85400
TTM_SCR_SS	88000
TTM_RAT_ACV	10045

