VERSION	0.00.00	1.03.00
FES_MODE	0
BPM_DEF	 86.000	 86.000	 86.000	 86.000
MET_DEF	4	4
RESOLUTION	384
CLK_DEF	384
COMPATIBLE_CODE	MA2

BPM	0	0	 86.000
MET	0	0	4	4

TAP	1	0	2
TAP	1	0	6
TAP	1	24	2
TAP	1	24	6
TAP	1	72	1
TAP	1	72	5
TAP	1	96	1
TAP	1	96	5
TAP	1	144	0
TAP	1	144	4
TAP	1	168	0
TAP	1	168	4
STR	1	192	3
SCR	1	192	3	96	48	6
STR	1	192	7
SCR	1	192	7	96	48	2
TAP	1	240	3
TAP	1	240	7
TAP	2	0	1
TAP	2	0	5
TAP	2	24	1
TAP	2	24	5
TAP	2	72	2
TAP	2	72	6
TAP	2	96	2
TAP	2	96	6
TAP	2	144	3
TAP	2	144	7
TAP	2	168	3
TAP	2	168	7
STR	2	192	0
SCL	2	192	0	96	48	5
STR	2	192	4
SCL	2	192	4	96	48	1
TAP	2	240	0
TAP	2	240	4
STR	3	0	5
SI_	3	0	5	96	240	0
TAP	3	96	4
TAP	3	192	3
TAP	3	288	2
STR	4	0	0
SI_	4	0	0	96	240	4
TAP	4	96	7
TAP	4	192	6
TAP	4	288	5
STR	5	0	4
SI_	5	0	4	96	240	7
TAP	5	96	3
TAP	5	192	2
TAP	5	288	1
STR	6	0	7
SI_	6	0	7	96	288	3
TAP	7	144	6
TAP	7	168	7
TAP	7	192	0
TAP	7	336	4
TAP	7	360	3
STR	8	0	2
SCL	8	0	2	96	192	7
HLD	8	0	7	96
TAP	8	48	2
TAP	8	144	2
HLD	8	192	2	96
TAP	8	336	3
TAP	8	360	4
HLD	9	0	0	96
STR	9	0	5
SCR	9	0	5	96	192	0
TAP	9	48	5
TAP	9	144	5
HLD	9	192	5	96
HLD	10	0	2	96
HLD	10	0	6	144
TAP	10	144	2
HLD	10	192	2	96
TAP	10	192	3
TAP	10	240	4
TAP	10	336	1
TAP	10	360	0
TAP	11	0	7
TAP	11	66	6
TAP	11	120	7
TAP	11	336	7
TAP	11	360	1
STR	12	0	3
SI_	12	0	3	96	192	0
HLD	12	0	5	96
TAP	12	48	3
TAP	12	144	3
HLD	12	192	3	96
TAP	12	336	1
TAP	12	360	0
HLD	13	0	2	96
STR	13	0	7
SI_	13	0	7	96	192	4
TAP	13	48	7
TAP	13	144	7
HLD	13	192	7	96
TAP	13	336	6
TAP	13	360	7
TAP	14	0	7
TAP	14	24	0
TAP	14	48	0
TAP	14	72	1
BRK	14	144	2
BRK	14	192	2
TAP	14	336	0
TAP	14	360	7
STR	15	0	3
SI_	15	0	3	96	240	0
STR	15	96	4
SI_	15	96	4	96	144	7
BRK	16	0	0
BRK	16	0	1
BRK	16	48	2
BRK	16	48	3
BRK	16	96	4
BRK	16	96	5
BRK	16	144	6
BRK	16	144	7
BRK	16	192	0
BRK	16	192	7
BRK	16	240	5
BRK	16	240	6
BRK	16	288	3
BRK	16	288	4
BRK	16	336	1
BRK	16	336	2
STR	17	0	0
SI_	17	0	0	96	96	4
TAP	17	48	0
STR	17	96	4
SI_	17	96	4	96	96	7
TAP	17	144	4
STR	17	192	7
SI_	17	192	7	96	96	3
TAP	17	240	7
STR	17	288	3
SI_	17	288	3	96	96	6
TAP	17	336	3
STR	18	0	6
SI_	18	0	6	96	96	1
TAP	18	48	6
STR	18	96	1
SI_	18	96	1	96	96	5
TAP	18	144	1
HLD	19	0	7	144
TAP	19	144	2
HLD	19	192	4	96
STR	19	336	0
SI_	19	336	0	96	48	3
STR	19	360	7
SI_	19	360	7	96	24	4
TAP	20	0	0
STR	20	144	7
SI_	20	144	7	96	48	4
STR	20	168	0
SI_	20	168	0	96	24	3
TAP	20	192	7
STR	21	0	7
SI_	21	0	7	96	96	3
TAP	21	48	7
STR	21	96	3
SI_	21	96	3	96	96	0
TAP	21	144	3
STR	21	192	0
SI_	21	192	0	96	96	4
TAP	21	240	0
STR	21	288	4
SI_	21	288	4	96	96	1
TAP	21	336	4
STR	22	0	1
SI_	22	0	1	96	96	6
TAP	22	48	1
STR	22	96	6
SI_	22	96	6	96	96	2
TAP	22	144	6
TAP	23	0	0
TAP	23	32	0
TAP	23	64	0
TAP	23	96	5
TAP	23	120	5
TAP	23	144	5
TAP	23	168	5
TAP	23	216	3
TAP	23	256	3
TAP	23	288	3
TAP	23	336	7
TAP	24	0	2
TAP	24	0	7
HLD	24	48	7	144
TAP	24	72	2
TAP	24	144	2
BRK	24	192	2
TAP	24	336	5
TAP	24	360	6
HLD	25	0	5	96
STR	25	0	7
SCR	25	0	7	96	192	2
TAP	25	144	7
HLD	25	192	7	96
TAP	25	336	2
TAP	25	360	1
STR	26	0	0
SCL	26	0	0	96	192	5
HLD	26	0	2	96
TAP	26	144	0
HLD	26	192	0	96
HLD	27	0	4	144
TAP	27	144	0
TAP	27	192	3
TAP	27	216	3
STR	28	0	3
SI_	28	0	3	96	96	0
STR	28	96	3
SI_	28	96	3	96	96	6
STR	28	192	3
SI_	28	192	3	96	96	7
HLD	29	0	0	384
TAP	29	144	3
TAP	29	168	4
TAP	29	192	5
TAP	29	336	3
TAP	29	360	2
TAP	30	0	1
TAP	30	192	0
TAP	30	192	7
HLD	31	0	6	213
TAP	31	156	7
TAP	31	185	0
TAP	31	213	1
STR	31	334	1
SCL	31	334	1	96	902	6
TAP	32	7	1
TAP	32	89	1

T_REC_TAP	124
T_REC_BRK	19
T_REC_XTP	0
T_REC_HLD	21
T_REC_XHO	0
T_REC_STR	36
T_REC_BST	0
T_REC_XST	0
T_REC_TTP	0
T_REC_THO	0
T_REC_SLD	36
T_REC_ALL	236
T_NUM_TAP	160
T_NUM_BRK	19
T_NUM_HLD	21
T_NUM_SLD	36
T_NUM_ALL	236
T_JUDGE_TAP	179
T_JUDGE_HLD	109
T_JUDGE_SLD	36
T_JUDGE_ALL	324
TTM_EACHPAIRS	34
TTM_SCR_TAP	80000
TTM_SCR_BRK	49400
TTM_SCR_HLD	21000
TTM_SCR_SLD	54000
TTM_SCR_ALL	204400
TTM_SCR_S	196450
TTM_SCR_SS	202500
TTM_RAT_ACV	10093

