VERSION	0.00.00	1.03.00
FES_MODE	0
BPM_DEF	 86.000	 86.000	 86.000	 86.000
MET_DEF	4	4
RESOLUTION	384
CLK_DEF	384
COMPATIBLE_CODE	MA2

BPM	0	0	 86.000
MET	0	0	4	4

TAP	1	0	2
TAP	1	0	3
TAP	1	72	4
TAP	1	72	5
STR	1	144	2
SI_	1	144	2	96	48	6
TAP	1	144	3
TAP	2	0	4
TAP	2	0	5
TAP	2	72	2
TAP	2	72	3
TAP	2	144	4
STR	2	144	5
SI_	2	144	5	96	48	1
HLD	3	0	7	192
TAP	3	144	6
HLD	3	192	6	192
TAP	3	336	5
HLD	4	0	5	192
TAP	4	144	4
HLD	4	192	4	288
TAP	4	336	0
STR	5	0	0
SCR	5	0	0	96	96	3
STR	5	192	4
SI_	5	192	4	96	96	0
HLD	6	0	7	192
TAP	6	144	6
HLD	6	192	6	192
TAP	6	336	5
HLD	7	0	5	192
TAP	7	144	4
BRK	7	192	4
TAP	7	336	7
STR	8	0	7
SI_	8	0	7	96	192	3
TAP	8	144	7
HLD	8	192	7	96
TAP	8	336	0
STR	9	0	0
SI_	9	0	0	96	192	4
TAP	9	144	0
HLD	9	192	0	96
TAP	9	336	6
STR	10	0	6
SCR	10	0	6	96	192	1
TAP	10	144	6
HLD	10	192	6	96
TAP	10	336	2
STR	11	0	2
SCR	11	0	2	96	192	5
TAP	11	144	2
HLD	11	192	2	96
TAP	11	336	7
TAP	11	360	7
STR	12	0	7
SI_	12	0	7	96	96	4
TAP	12	144	1
STR	12	192	1
SCL	12	192	1	96	96	6
TAP	12	336	1
TAP	12	360	1
STR	13	0	1
SI_	13	0	1	96	96	4
TAP	13	144	6
STR	13	192	6
SCR	13	192	6	96	96	1
TAP	13	336	6
TAP	13	360	6
STR	14	0	6
SI_	14	0	6	96	96	3
TAP	14	144	5
STR	14	192	5
SCR	14	192	5	96	96	0
TAP	14	360	2
TAP	15	16	2
TAP	15	56	2
STR	15	96	2
SI_	15	96	2	96	192	7
HLD	15	136	2	248
HLD	17	0	2	96
HLD	17	0	6	672
TAP	17	144	2
TAP	17	192	2
TAP	18	0	1
STR	18	96	1
SCR	18	96	1	96	96	4
HLD	19	0	7	192
TAP	19	144	0
HLD	19	192	0	192
STR	19	288	7
SI_	19	288	7	96	240	4
STR	20	96	0
SI_	20	96	0	96	96	3
STR	21	0	2
SCL	21	0	2	96	192	7
HLD	21	0	5	672
STR	22	0	7
SCR	22	0	7	96	192	2
HLD	23	0	6	672
TAP	23	96	0
STR	23	192	0
SI_	23	192	0	96	96	5
STR	24	96	5
SI_	24	96	5	96	96	1
HLD	25	0	1	96
HLD	25	0	4	1488
TAP	25	192	1
STR	26	0	0
SI_	26	0	0	96	192	3
STR	27	0	5
SCR	27	0	5	96	192	0
TAP	28	96	5
TAP	28	240	5
STR	28	336	5
SI_	28	336	5	96	528	1
HLD	31	0	6	156
TAP	31	156	7
TAP	31	185	6
STR	31	213	5
SI_	31	213	5	96	249	1
STR	31	334	3
SI_	31	334	3	96	472	7

T_REC_TAP	47
T_REC_BRK	1
T_REC_XTP	0
T_REC_HLD	21
T_REC_XHO	0
T_REC_STR	27
T_REC_BST	0
T_REC_XST	0
T_REC_TTP	0
T_REC_THO	0
T_REC_SLD	27
T_REC_ALL	123
T_NUM_TAP	74
T_NUM_BRK	1
T_NUM_HLD	21
T_NUM_SLD	27
T_NUM_ALL	123
T_JUDGE_TAP	75
T_JUDGE_HLD	264
T_JUDGE_SLD	27
T_JUDGE_ALL	366
TTM_EACHPAIRS	9
TTM_SCR_TAP	37000
TTM_SCR_BRK	2600
TTM_SCR_HLD	21000
TTM_SCR_SLD	40500
TTM_SCR_ALL	101100
TTM_SCR_S	98000
TTM_SCR_SS	101000
TTM_RAT_ACV	10009

