VERSION	0.00.00	1.03.00
FES_MODE	0
BPM_DEF	 86.000	 86.000	 86.000	 86.000
MET_DEF	4	4
RESOLUTION	384
CLK_DEF	384
COMPATIBLE_CODE	MA2

BPM	0	0	 86.000
MET	0	0	4	4

TAP	1	0	0
TAP	1	96	1
BRK	1	192	2
TAP	2	0	7
TAP	2	96	6
BRK	2	192	5
TAP	3	0	0
TAP	3	192	1
TAP	4	0	2
TAP	4	192	3
TAP	5	0	3
TAP	5	192	2
TAP	5	288	2
STR	6	0	1
SI_	6	0	1	96	96	6
TAP	6	288	6
STR	7	0	6
SI_	7	0	6	96	96	1
TAP	7	288	1
TAP	8	0	3
TAP	8	144	2
TAP	8	192	2
STR	9	0	2
SI_	9	0	2	96	96	5
TAP	9	288	5
TAP	10	0	6
TAP	10	144	1
TAP	10	192	1
HLD	11	0	1	96
TAP	11	96	2
HLD	11	192	6	96
TAP	11	288	5
TAP	11	336	4
TAP	12	0	4
TAP	12	144	5
TAP	12	192	5
STR	13	0	5
SI_	13	0	5	96	96	2
TAP	13	288	2
TAP	13	336	3
TAP	14	0	3
TAP	14	144	4
TAP	14	192	4
TAP	15	0	4
STR	15	96	4
SI_	15	96	4	96	192	0
TAP	16	0	2
TAP	16	96	3
BRK	16	192	3
BRK	16	192	4
BRK	16	288	4
BRK	16	288	5
HLD	17	0	5	144
TAP	17	144	6
HLD	17	192	6	144
TAP	17	336	2
HLD	18	0	2	144
TAP	18	144	1
HLD	18	192	1	144
TAP	18	336	0
STR	19	0	0
SI_	19	0	0	96	96	3
TAP	19	288	7
STR	20	0	7
SI_	20	0	7	96	96	4
TAP	20	288	2
HLD	21	0	2	144
TAP	21	144	1
HLD	21	192	1	144
TAP	21	336	5
HLD	22	0	5	144
TAP	22	144	6
HLD	22	192	6	96
TAP	22	288	7
TAP	23	0	2
TAP	23	0	6
TAP	23	96	1
TAP	23	96	5
TAP	23	192	3
TAP	23	192	7
TAP	23	288	0
TAP	23	288	4
HLD	24	0	1	288
HLD	24	0	6	288
TAP	24	336	3
HLD	25	0	3	144
TAP	25	144	2
TAP	25	192	2
TAP	25	336	2
HLD	26	0	2	144
TAP	26	144	1
TAP	26	192	1
HLD	27	0	1	144
TAP	27	144	0
TAP	27	192	0
HLD	28	0	4	144
HLD	28	144	5	144
HLD	28	288	7	288
TAP	29	336	2
HLD	30	0	1	192
HLD	30	192	0	144
TAP	31	0	7
TAP	31	156	7
TAP	31	185	6
TAP	31	213	5
TAP	31	334	4
HLD	32	174	3	688
HLD	32	174	4	688

T_REC_TAP	66
T_REC_BRK	6
T_REC_XTP	0
T_REC_HLD	22
T_REC_XHO	0
T_REC_STR	7
T_REC_BST	0
T_REC_XST	0
T_REC_TTP	0
T_REC_THO	0
T_REC_SLD	7
T_REC_ALL	108
T_NUM_TAP	73
T_NUM_BRK	6
T_NUM_HLD	22
T_NUM_SLD	7
T_NUM_ALL	108
T_JUDGE_TAP	79
T_JUDGE_HLD	192
T_JUDGE_SLD	7
T_JUDGE_ALL	278
TTM_EACHPAIRS	8
TTM_SCR_TAP	36500
TTM_SCR_BRK	15600
TTM_SCR_HLD	22000
TTM_SCR_SLD	10500
TTM_SCR_ALL	84600
TTM_SCR_S	81500
TTM_SCR_SS	84000
TTM_RAT_ACV	10071

