VERSION	0.00.00	1.03.00
FES_MODE	0
BPM_DEF	203.000	203.000	203.000	203.000
MET_DEF	4	4
RESOLUTION	384
CLK_DEF	384
COMPATIBLE_CODE	MA2

BPM	0	0	203.000
MET	0	0	4	4

TAP	2	0	4
TAP	2	144	3
TAP	2	288	2
TAP	3	48	1
TAP	3	96	1
TAP	3	192	0
TAP	4	0	1
TAP	4	144	2
TAP	4	288	3
TAP	5	48	4
TAP	5	96	4
TAP	5	192	5
TAP	6	0	6
TAP	6	144	4
TAP	6	288	2
TAP	7	48	1
TAP	7	96	1
TAP	7	192	0
TAP	8	0	1
TAP	8	144	3
TAP	8	288	5
TAP	9	48	6
TAP	9	96	6
TAP	9	192	7
HLD	10	0	6	96
TAP	10	96	5
HLD	10	144	3	96
TAP	10	240	2
HLD	10	288	0	96
TAP	11	0	1
TAP	11	48	3
TAP	11	96	5
HLD	11	192	7	192
HLD	12	0	0	96
TAP	12	96	1
HLD	12	144	3	96
TAP	12	240	4
HLD	12	288	6	96
TAP	13	0	7
TAP	13	48	5
TAP	13	96	3
HLD	13	192	1	192
HLD	14	0	2	96
TAP	14	96	3
HLD	14	144	5	96
TAP	14	240	6
HLD	14	288	0	96
TAP	15	0	1
TAP	15	48	7
TAP	15	96	5
HLD	15	192	3	192
BRK	16	0	0
STR	17	192	4
SI_	17	192	4	96	48	0
TAP	18	0	7
TAP	18	48	7
TAP	18	96	5
TAP	18	144	5
TAP	18	192	3
HLD	18	240	1	96
TAP	18	336	2
TAP	19	0	2
TAP	19	48	3
TAP	19	96	5
HLD	19	144	7	96
TAP	19	240	0
TAP	19	288	0
TAP	19	336	1
HLD	20	0	0	96
TAP	20	96	6
HLD	20	144	6	96
TAP	20	240	4
TAP	20	288	4
TAP	20	336	2
HLD	21	0	1	96
TAP	21	96	3
HLD	21	144	3	96
TAP	21	240	5
TAP	21	288	5
TAP	21	336	6
TAP	22	0	5
STR	22	0	7
SCR	22	0	7	96	48	2
TAP	22	48	4
TAP	22	96	3
STR	22	192	0
SCL	22	192	0	96	48	5
TAP	22	192	2
TAP	22	240	3
TAP	22	288	4
TAP	23	0	4
TAP	23	0	7
TAP	23	48	0
TAP	23	48	5
TAP	23	96	1
TAP	23	96	6
BRK	23	192	2
BRK	23	192	7
STR	24	0	0
SCR	24	0	0	96	48	3
TAP	24	0	6
TAP	24	48	5
TAP	24	96	4
STR	24	192	1
SCL	24	192	1	96	48	6
TAP	24	192	3
TAP	24	240	4
TAP	24	288	5
TAP	25	0	0
TAP	25	0	4
TAP	25	48	1
TAP	25	48	5
TAP	25	96	2
TAP	25	96	6
BRK	25	192	3
BRK	25	192	7
TAP	26	0	0
TAP	26	48	0
TAP	26	96	2
TAP	26	144	2
TAP	26	192	4
HLD	26	240	4	96
TAP	26	336	5
TAP	27	0	3
TAP	27	48	1
TAP	27	96	7
HLD	27	144	7	96
TAP	27	240	0
TAP	27	288	0
TAP	27	336	1
HLD	28	0	7	96
TAP	28	96	1
HLD	28	144	1	96
TAP	28	240	3
TAP	28	288	3
TAP	28	336	5
HLD	29	0	6	96
TAP	29	96	4
HLD	29	144	4	96
TAP	29	240	2
TAP	29	288	2
TAP	29	336	1
STR	30	0	0
SCL	30	0	0	96	48	5
TAP	30	0	2
TAP	30	48	3
TAP	30	96	4
TAP	30	192	5
STR	30	192	7
SCR	30	192	7	96	48	2
TAP	30	240	4
TAP	30	288	3
TAP	31	0	0
TAP	31	0	3
TAP	31	48	2
TAP	31	48	7
TAP	31	96	1
TAP	31	96	6
BRK	31	192	0
BRK	31	192	5
TAP	32	0	1
STR	32	0	7
SCL	32	0	7	96	48	4
TAP	32	48	2
TAP	32	96	3
TAP	32	192	4
STR	32	192	6
SCR	32	192	6	96	48	1
TAP	32	240	3
TAP	32	288	2
TAP	33	0	3
TAP	33	0	7
TAP	33	48	2
TAP	33	48	6
TAP	33	96	1
TAP	33	96	5
BRK	33	192	0
BRK	33	192	4
HLD	34	0	3	96
TAP	34	96	1
HLD	34	144	2	144
TAP	34	240	1
HLD	34	288	1	96
HLD	35	0	3	96
TAP	35	96	5
HLD	35	144	4	144
TAP	35	240	3
HLD	35	288	2	96
HLD	36	0	0	96
TAP	36	96	7
HLD	36	144	7	96
TAP	36	240	6
HLD	36	288	6	96
HLD	37	0	4	96
HLD	37	96	2	96
TAP	37	192	1
TAP	37	240	0
TAP	37	288	0
HLD	38	0	1	96
TAP	38	96	3
HLD	38	144	2	144
TAP	38	240	1
HLD	38	288	0	96
HLD	39	0	7	96
TAP	39	96	6
HLD	39	144	5	144
TAP	39	240	4
STR	39	288	0
SI_	39	288	0	96	48	3
STR	40	0	0
SI_	40	0	0	96	48	5
STR	40	96	0
SCR	40	96	0	96	48	3
STR	40	192	0
SCL	40	192	0	96	48	5
STR	40	288	4
SI_	40	288	4	96	48	1
STR	41	0	4
SI_	41	0	4	96	48	7
STR	41	96	4
SCL	41	96	4	96	48	1
STR	41	192	4
SCR	41	192	4	96	48	7
BRK	42	0	0
TAP	42	96	2
TAP	42	96	3
TAP	42	192	3
TAP	42	192	4
TAP	42	288	5
TAP	42	288	6
TAP	43	0	0
TAP	43	0	1
TAP	43	96	1
TAP	43	96	6
TAP	43	192	2
TAP	43	192	3
TAP	43	288	3
TAP	43	288	4
TAP	44	0	5
TAP	44	0	6
TAP	44	96	0
TAP	44	96	1
TAP	44	192	1
TAP	44	192	2
TAP	44	288	0
TAP	44	288	1
TAP	45	0	5
TAP	45	0	6
TAP	45	96	3
TAP	45	96	4
TAP	45	192	2
TAP	45	192	3
TAP	45	288	3
TAP	45	288	4
BRK	46	0	7
TAP	46	96	2
TAP	46	96	3
TAP	46	192	3
TAP	46	192	4
TAP	46	288	5
TAP	46	288	6
TAP	47	0	0
TAP	47	0	1
TAP	47	96	1
TAP	47	96	6
TAP	47	192	2
TAP	47	192	3
TAP	47	288	3
TAP	47	288	4
BRK	48	0	4
BRK	48	0	5
BRK	48	96	6
BRK	48	96	7
TAP	48	192	0
TAP	48	192	1
TAP	48	288	0
TAP	48	288	1
TAP	49	0	6
TAP	49	0	7
TAP	49	96	2
TAP	49	96	3
TAP	49	192	0
TAP	49	192	1
TAP	49	288	4
TAP	49	288	5
TAP	50	0	6
TAP	50	48	7
TAP	50	96	6
TAP	50	144	4
TAP	50	192	2
TAP	50	288	2
TAP	50	336	1
TAP	51	0	2
TAP	51	48	4
TAP	51	96	6
TAP	51	192	7
TAP	51	240	6
TAP	51	288	5
TAP	51	336	4
STR	52	0	3
SCR	52	0	3	96	48	6
TAP	52	48	2
TAP	52	96	3
TAP	52	192	7
TAP	52	288	0
TAP	52	336	1
STR	53	0	2
SI_	53	0	2	96	48	7
TAP	53	96	6
TAP	53	192	5
STR	53	192	7
SCR	53	192	7	96	48	2
TAP	53	240	4
TAP	53	288	3
TAP	54	0	1
TAP	54	48	0
TAP	54	96	1
TAP	54	144	3
TAP	54	192	5
TAP	54	288	5
TAP	54	336	6
TAP	55	0	5
TAP	55	48	3
TAP	55	96	1
TAP	55	192	0
TAP	55	240	1
TAP	55	288	2
TAP	55	336	3
STR	56	0	4
SCL	56	0	4	96	48	1
TAP	56	48	5
TAP	56	96	4
TAP	56	192	0
TAP	56	288	7
TAP	56	336	6
STR	57	0	5
SCR	57	0	5	96	48	0
TAP	57	96	1
STR	57	192	0
SI_	57	192	0	96	48	5
TAP	57	192	2
TAP	57	240	3
TAP	57	288	4
TAP	58	0	6
TAP	58	48	5
TAP	58	96	6
TAP	58	144	0
TAP	58	192	2
TAP	58	288	2
TAP	58	336	3
TAP	59	0	2
TAP	59	48	0
TAP	59	96	6
TAP	59	192	5
TAP	59	240	6
TAP	59	288	7
TAP	59	336	0
STR	60	0	1
SCL	60	0	1	96	48	6
TAP	60	48	2
TAP	60	96	1
TAP	60	192	5
TAP	60	288	3
TAP	60	336	2
STR	61	0	1
SI_	61	0	1	96	48	4
TAP	61	96	6
TAP	61	192	5
STR	61	192	7
SCR	61	192	7	96	48	2
TAP	61	240	4
TAP	61	288	3
HLD	62	0	1	384
TAP	62	96	2
TAP	62	288	2
HLD	63	0	3	384
TAP	63	96	4
TAP	63	288	5
HLD	64	0	5	96
HLD	64	96	7	288
TAP	64	288	0
STR	65	0	1
SI_	65	0	1	96	48	5
STR	65	96	2
SI_	65	96	2	96	48	6
STR	65	192	3
SI_	65	192	3	96	48	7
TAP	66	0	7
TAP	66	96	6
TAP	66	96	7
TAP	66	192	6
TAP	66	288	5
TAP	66	288	6
TAP	67	0	7
TAP	67	96	0
TAP	67	96	7
TAP	67	192	0
TAP	67	288	0
TAP	67	288	1
TAP	68	0	7
TAP	68	96	5
TAP	68	96	6
TAP	68	192	4
TAP	68	288	2
TAP	68	288	3
TAP	69	0	1
TAP	69	96	2
TAP	69	96	3
TAP	69	192	4
TAP	69	288	5
TAP	69	288	6
TAP	70	0	4
TAP	70	48	2
TAP	70	96	3
TAP	70	144	1
TAP	70	192	3
TAP	70	240	2
TAP	70	288	4
TAP	70	336	3
TAP	71	0	5
TAP	71	48	3
TAP	71	96	4
TAP	71	144	2
TAP	71	192	3
TAP	71	240	1
TAP	71	288	3
TAP	71	336	4
TAP	72	0	6
TAP	72	48	0
TAP	72	96	7
TAP	72	144	1
TAP	72	192	0
TAP	72	240	7
TAP	72	288	6
TAP	72	336	7
TAP	73	0	1
TAP	73	48	3
TAP	73	96	5
TAP	73	144	4
TAP	73	192	2
TAP	73	240	4
TAP	73	288	6
BRK	73	336	0
HLD	74	0	7	96
TAP	74	48	6
HLD	74	96	6	96
TAP	74	144	5
HLD	74	192	5	96
TAP	74	240	4
HLD	74	288	4	96
TAP	74	336	3
HLD	75	0	3	96
TAP	75	48	4
HLD	75	96	5	96
TAP	75	144	6
HLD	75	192	7	96
TAP	75	240	0
HLD	75	288	0	192
TAP	76	96	2
TAP	76	144	5
TAP	76	192	3
TAP	76	240	7
TAP	76	288	4
TAP	76	336	6
TAP	77	0	3
TAP	77	48	7
TAP	77	96	2
TAP	77	144	5
TAP	77	192	0
TAP	77	240	4
TAP	77	288	2
TAP	77	336	6
TAP	78	0	0
TAP	78	24	1
TAP	78	48	2
TAP	78	72	3
TAP	78	96	4
TAP	78	120	5
TAP	78	144	6
TAP	78	168	7
TAP	78	192	4
TAP	78	216	3
TAP	78	240	2
TAP	78	264	1
TAP	78	288	0
TAP	78	312	7
TAP	78	336	6
TAP	78	360	5
TAP	79	0	1
TAP	79	24	2
TAP	79	48	3
TAP	79	72	4
TAP	79	96	5
TAP	79	120	6
TAP	79	144	7
TAP	79	168	0
TAP	79	192	7
TAP	79	216	6
TAP	79	240	5
TAP	79	264	4
TAP	79	288	3
TAP	79	312	2
TAP	79	336	1
TAP	79	360	0
TAP	80	0	7
TAP	80	48	5
TAP	80	96	3
TAP	80	144	4
TAP	80	192	6
TAP	80	240	0
TAP	80	288	7
TAP	80	336	5
TAP	81	0	3
TAP	81	48	1
TAP	81	96	3
TAP	81	144	2
TAP	81	192	4
TAP	81	240	3
TAP	81	288	4
TAP	81	336	5
TAP	82	0	6
TAP	82	48	7
TAP	82	96	6
TAP	82	144	4
TAP	82	192	2
TAP	82	288	2
TAP	82	336	1
TAP	83	0	2
TAP	83	48	4
TAP	83	96	6
TAP	83	192	7
TAP	83	240	6
TAP	83	288	5
TAP	83	336	4
STR	84	0	3
SCR	84	0	3	96	48	6
TAP	84	48	2
TAP	84	96	3
TAP	84	192	7
TAP	84	288	0
TAP	84	336	1
STR	85	0	2
SI_	85	0	2	96	48	7
TAP	85	96	6
TAP	85	192	5
STR	85	192	7
SCR	85	192	7	96	48	2
TAP	85	240	4
TAP	85	288	3
TAP	86	0	1
TAP	86	48	0
TAP	86	96	1
TAP	86	144	3
TAP	86	192	5
TAP	86	288	5
TAP	86	336	6
TAP	87	0	5
TAP	87	48	3
TAP	87	96	1
TAP	87	192	0
TAP	87	240	1
TAP	87	288	2
TAP	87	336	3
STR	88	0	4
SCL	88	0	4	96	48	1
TAP	88	48	5
TAP	88	96	4
TAP	88	192	0
TAP	88	288	7
TAP	88	336	6
STR	89	0	5
SCR	89	0	5	96	48	0
TAP	89	96	1
STR	89	192	0
SI_	89	192	0	96	48	5
TAP	89	192	2
TAP	89	240	3
TAP	89	288	4
TAP	90	0	5
TAP	90	48	4
TAP	90	96	3
TAP	90	144	2
TAP	90	192	1
TAP	90	288	3
TAP	90	336	4
TAP	91	0	5
TAP	91	48	6
TAP	91	96	7
TAP	91	192	0
TAP	91	240	0
TAP	91	288	6
TAP	91	336	6
STR	92	0	4
SI_	92	0	4	96	48	0
TAP	92	48	4
TAP	92	96	2
TAP	92	192	7
TAP	92	288	1
TAP	92	336	1
STR	93	0	3
SI_	93	0	3	96	48	7
TAP	93	96	6
TAP	93	192	5
STR	93	192	7
SCR	93	192	7	96	48	2
TAP	93	240	4
TAP	93	288	3
HLD	94	0	1	384
TAP	94	96	2
TAP	94	288	2
HLD	95	0	3	384
TAP	95	96	4
TAP	95	288	5
HLD	96	0	5	96
HLD	96	96	7	288
TAP	96	288	0
STR	97	0	2
SI_	97	0	2	96	48	5
STR	97	96	3
SI_	97	96	3	96	48	7
STR	97	192	4
SI_	97	192	4	96	48	0
STR	97	288	7
SI_	97	288	7	96	48	4

T_REC_TAP	468
T_REC_BRK	16
T_REC_XTP	0
T_REC_HLD	56
T_REC_XHO	0
T_REC_STR	42
T_REC_BST	0
T_REC_XST	0
T_REC_TTP	0
T_REC_THO	0
T_REC_SLD	42
T_REC_ALL	624
T_NUM_TAP	510
T_NUM_BRK	16
T_NUM_HLD	56
T_NUM_SLD	42
T_NUM_ALL	624
T_JUDGE_TAP	526
T_JUDGE_HLD	156
T_JUDGE_SLD	42
T_JUDGE_ALL	724
TTM_EACHPAIRS	68
TTM_SCR_TAP	255000
TTM_SCR_BRK	41600
TTM_SCR_HLD	56000
TTM_SCR_SLD	63000
TTM_SCR_ALL	415600
TTM_SCR_S	401600
TTM_SCR_SS	414000
TTM_RAT_ACV	10038

