VERSION	0.00.00	1.03.00
FES_MODE	0
BPM_DEF	203.000	203.000	203.000	203.000
MET_DEF	4	4
RESOLUTION	384
CLK_DEF	384
COMPATIBLE_CODE	MA2

BPM	0	0	203.000
MET	0	0	4	4

HLD	2	0	6	144
HLD	2	144	1	144
HLD	2	288	2	192
TAP	3	96	3
TAP	3	192	3
HLD	4	0	1	144
HLD	4	144	6	144
HLD	4	288	5	192
TAP	5	96	4
TAP	5	192	4
HLD	6	0	0	144
HLD	6	144	7	144
HLD	6	288	0	192
TAP	7	96	6
TAP	7	192	6
HLD	8	0	2	144
HLD	8	144	5	144
HLD	8	288	2	192
TAP	9	96	4
TAP	9	192	4
HLD	10	0	0	576
TAP	10	144	2
TAP	10	288	4
TAP	11	96	6
TAP	11	192	6
HLD	12	0	7	576
TAP	12	144	5
TAP	12	288	3
TAP	13	96	1
TAP	13	192	1
HLD	14	0	0	576
TAP	14	144	4
TAP	14	288	3
TAP	15	96	7
TAP	15	192	7
BRK	16	0	0
BRK	16	0	7
TAP	17	192	0
TAP	17	192	7
TAP	17	288	0
TAP	17	288	7
TAP	18	0	2
TAP	18	96	3
TAP	18	192	4
TAP	18	288	5
TAP	19	0	1
TAP	19	96	0
TAP	19	192	7
TAP	19	288	6
TAP	20	0	0
TAP	20	96	0
TAP	20	192	2
TAP	20	288	2
TAP	21	0	4
TAP	21	96	4
TAP	21	192	6
TAP	21	288	6
TAP	22	0	4
TAP	22	96	0
TAP	22	96	1
TAP	22	192	5
TAP	22	288	0
TAP	22	288	1
TAP	23	0	4
TAP	23	96	0
TAP	23	96	1
TAP	23	192	5
BRK	23	288	0
BRK	23	288	1
TAP	24	0	2
TAP	24	96	6
TAP	24	96	7
TAP	24	192	3
TAP	24	288	6
TAP	24	288	7
TAP	25	0	2
TAP	25	96	6
TAP	25	96	7
TAP	25	192	3
BRK	25	288	6
BRK	25	288	7
TAP	26	0	5
TAP	26	96	4
TAP	26	192	3
TAP	26	288	2
TAP	27	0	6
TAP	27	96	7
TAP	27	192	0
TAP	27	288	1
TAP	28	0	7
TAP	28	96	7
TAP	28	192	5
TAP	28	288	5
TAP	29	0	3
TAP	29	96	3
TAP	29	192	1
TAP	29	288	1
TAP	30	0	3
TAP	30	96	6
TAP	30	96	7
TAP	30	192	4
TAP	30	288	0
TAP	30	288	1
TAP	31	0	3
TAP	31	96	6
TAP	31	96	7
TAP	31	192	4
BRK	31	288	0
BRK	31	288	1
TAP	32	0	7
TAP	32	96	2
TAP	32	96	3
TAP	32	192	0
TAP	32	288	4
TAP	32	288	5
TAP	33	0	7
TAP	33	96	2
TAP	33	96	3
TAP	33	192	0
BRK	33	288	4
BRK	33	288	5
STR	34	0	1
SCR	34	0	1	96	144	4
TAP	34	96	1
STR	35	0	0
SCL	35	0	0	96	144	5
TAP	35	96	0
STR	36	0	7
SCR	36	0	7	96	144	2
TAP	36	96	7
STR	37	0	6
SCL	37	0	6	96	144	3
TAP	37	96	6
STR	38	0	0
SI_	38	0	0	96	144	4
TAP	38	96	0
STR	39	0	7
SI_	39	0	7	96	144	3
TAP	39	96	7
STR	40	0	1
SI_	40	0	1	96	144	5
STR	40	0	6
SI_	40	0	6	96	144	2
TAP	40	96	1
TAP	40	96	6
STR	41	0	0
SCR	41	0	0	96	192	3
STR	41	0	7
SCL	41	0	7	96	192	4
HLD	42	96	0	96
HLD	42	192	4	96
HLD	42	288	2	96
HLD	43	0	6	96
HLD	43	96	3	96
HLD	43	192	7	96
HLD	43	288	1	96
TAP	44	0	5
TAP	44	96	1
TAP	44	96	5
TAP	44	288	0
TAP	44	288	4
TAP	45	96	3
TAP	45	96	7
TAP	45	288	2
TAP	45	288	6
HLD	46	96	2	96
HLD	46	192	7	96
HLD	46	288	5	96
HLD	47	0	3	96
HLD	47	96	6	96
HLD	47	192	4	96
TAP	47	288	1
TAP	48	0	0
TAP	48	0	7
TAP	48	96	0
TAP	48	96	7
TAP	48	288	2
TAP	48	288	6
TAP	49	96	0
TAP	49	96	4
TAP	49	192	2
TAP	49	192	6
BRK	49	288	0
BRK	49	288	7
TAP	50	0	1
TAP	50	48	0
TAP	50	96	1
TAP	50	144	0
TAP	50	192	0
TAP	50	192	1
TAP	50	288	6
TAP	50	336	7
TAP	51	0	6
TAP	51	48	7
TAP	51	96	6
TAP	51	96	7
TAP	51	192	3
TAP	51	240	4
TAP	51	288	3
TAP	51	336	4
TAP	52	0	3
TAP	52	0	4
STR	52	96	2
SI_	52	96	2	96	96	6
STR	52	96	5
SI_	52	96	5	96	96	1
TAP	53	0	0
TAP	53	0	7
STR	53	96	1
SI_	53	96	1	96	96	5
STR	53	96	6
SI_	53	96	6	96	96	2
TAP	54	0	2
TAP	54	48	3
TAP	54	96	2
TAP	54	144	3
TAP	54	192	2
TAP	54	192	3
TAP	54	288	5
TAP	54	336	4
TAP	55	0	5
TAP	55	48	4
TAP	55	96	4
TAP	55	96	5
TAP	55	192	0
TAP	55	240	7
TAP	55	288	0
TAP	55	336	7
TAP	56	0	0
TAP	56	0	7
STR	56	96	0
SI_	56	96	0	96	96	3
STR	56	96	7
SI_	56	96	7	96	96	4
TAP	57	0	3
TAP	57	0	4
STR	57	96	3
SCL	57	96	3	96	96	0
STR	57	96	4
SCR	57	96	4	96	96	7
TAP	58	0	1
TAP	58	48	0
TAP	58	96	1
TAP	58	144	0
TAP	58	192	2
TAP	58	192	6
TAP	58	288	6
TAP	58	336	7
TAP	59	0	6
TAP	59	48	7
TAP	59	96	1
TAP	59	96	5
TAP	59	192	2
TAP	59	240	4
TAP	59	288	3
TAP	59	336	5
TAP	60	0	2
TAP	60	0	5
STR	60	96	2
SI_	60	96	2	96	96	7
STR	60	96	5
SI_	60	96	5	96	96	0
TAP	61	0	1
TAP	61	0	6
STR	61	96	1
SI_	61	96	1	96	96	4
STR	61	96	6
SI_	61	96	6	96	96	3
HLD	62	0	2	192
HLD	62	192	0	192
HLD	63	0	6	144
HLD	63	144	4	624
HLD	63	288	3	480
TAP	65	192	2
TAP	65	192	3
TAP	65	288	4
TAP	65	288	5
TAP	66	96	2
TAP	66	96	3
TAP	66	288	2
TAP	66	288	3
TAP	67	96	4
TAP	67	96	5
TAP	67	192	6
TAP	67	192	7
BRK	67	288	0
BRK	67	288	1
TAP	68	96	0
TAP	68	96	1
TAP	68	288	0
TAP	68	288	1
TAP	69	96	2
TAP	69	96	3
TAP	69	192	4
TAP	69	192	5
BRK	69	288	6
BRK	69	288	7
TAP	70	0	0
TAP	70	48	7
TAP	70	96	0
TAP	70	144	7
TAP	70	192	0
TAP	70	240	7
TAP	70	288	0
TAP	70	336	7
TAP	71	0	1
TAP	71	48	6
TAP	71	96	1
TAP	71	144	6
TAP	71	192	1
TAP	71	240	6
TAP	71	288	1
TAP	71	336	6
TAP	72	0	0
TAP	72	48	7
TAP	72	96	0
TAP	72	144	7
TAP	72	192	1
TAP	72	240	6
TAP	72	288	1
TAP	72	336	6
TAP	73	0	0
TAP	73	48	7
TAP	73	96	0
TAP	73	144	7
TAP	73	192	1
TAP	73	240	6
TAP	73	288	1
TAP	73	336	6
TAP	74	96	4
TAP	74	96	5
TAP	74	288	4
TAP	74	288	5
TAP	75	96	2
TAP	75	96	3
TAP	75	192	0
TAP	75	192	1
BRK	75	288	6
BRK	75	288	7
TAP	76	96	6
TAP	76	96	7
TAP	76	288	6
TAP	76	288	7
TAP	77	96	4
TAP	77	96	5
TAP	77	192	2
TAP	77	192	3
BRK	77	288	0
BRK	77	288	1
HLD	78	0	0	96
HLD	78	96	2	96
HLD	78	192	4	96
HLD	78	288	6	96
HLD	79	0	7	96
HLD	79	96	1	96
HLD	79	192	3	96
HLD	79	288	5	96
HLD	80	0	4	96
HLD	80	96	2	96
HLD	80	192	0	96
HLD	80	288	6	96
HLD	81	0	5	96
HLD	81	96	3	96
HLD	81	192	1	96
TAP	81	288	7
TAP	82	0	1
TAP	82	48	0
TAP	82	96	1
TAP	82	144	0
TAP	82	192	1
TAP	82	288	6
TAP	82	336	7
TAP	83	0	6
TAP	83	48	7
TAP	83	96	6
TAP	83	192	0
TAP	83	240	7
TAP	83	288	0
TAP	83	336	7
TAP	84	0	0
TAP	84	48	6
TAP	84	96	1
TAP	84	144	7
TAP	84	192	0
TAP	84	288	5
TAP	84	336	3
TAP	85	0	4
TAP	85	48	2
TAP	85	96	5
TAP	85	192	1
TAP	85	240	6
TAP	85	288	0
TAP	85	336	7
TAP	86	0	1
TAP	86	48	2
TAP	86	96	3
TAP	86	144	4
TAP	86	192	5
TAP	86	288	0
TAP	86	336	7
TAP	87	0	6
TAP	87	48	5
TAP	87	96	4
TAP	87	192	2
TAP	87	240	1
TAP	87	288	0
TAP	87	336	7
TAP	88	0	6
TAP	88	48	4
TAP	88	96	6
TAP	88	144	4
TAP	88	192	6
TAP	88	288	1
TAP	88	336	3
TAP	89	0	1
TAP	89	48	3
TAP	89	96	1
TAP	89	192	4
TAP	89	240	3
TAP	89	288	4
TAP	89	336	3
TAP	90	0	6
TAP	90	48	7
TAP	90	96	0
TAP	90	144	1
TAP	90	192	0
TAP	90	192	7
TAP	90	288	2
TAP	90	336	3
TAP	91	0	4
TAP	91	48	5
TAP	91	96	3
TAP	91	96	4
TAP	91	192	3
TAP	91	192	7
TAP	91	240	0
TAP	91	240	4
TAP	91	288	1
TAP	91	288	5
TAP	91	336	2
TAP	91	336	6
TAP	92	0	1
TAP	92	48	0
TAP	92	96	1
TAP	92	144	0
TAP	92	192	4
TAP	92	192	5
TAP	92	288	2
TAP	92	336	3
TAP	93	0	2
TAP	93	48	3
TAP	93	96	6
TAP	93	96	7
TAP	93	192	0
TAP	93	240	6
TAP	93	288	1
TAP	93	336	7
HLD	94	0	2	192
HLD	94	192	0	192
HLD	95	0	6	144
HLD	95	144	4	624
HLD	95	288	3	480
TAP	97	192	0
TAP	97	192	7
TAP	97	288	1
TAP	97	288	6
BRK	98	0	0
BRK	98	0	7

T_REC_TAP	349
T_REC_BRK	22
T_REC_XTP	0
T_REC_HLD	53
T_REC_XHO	0
T_REC_STR	22
T_REC_BST	0
T_REC_XST	0
T_REC_TTP	0
T_REC_THO	0
T_REC_SLD	22
T_REC_ALL	468
T_NUM_TAP	371
T_NUM_BRK	22
T_NUM_HLD	53
T_NUM_SLD	22
T_NUM_ALL	468
T_JUDGE_TAP	393
T_JUDGE_HLD	200
T_JUDGE_SLD	22
T_JUDGE_ALL	615
TTM_EACHPAIRS	83
TTM_SCR_TAP	185500
TTM_SCR_BRK	57200
TTM_SCR_HLD	53000
TTM_SCR_SLD	33000
TTM_SCR_ALL	328700
TTM_SCR_S	316750
TTM_SCR_SS	326500
TTM_RAT_ACV	10067

