VERSION	0.00.00	1.03.00
FES_MODE	0
BPM_DEF	203.000	203.000	203.000	203.000
MET_DEF	4	4
RESOLUTION	384
CLK_DEF	384
COMPATIBLE_CODE	MA2

BPM	0	0	203.000
MET	0	0	4	4

TAP	2	0	5
TAP	2	192	5
TAP	3	0	5
TAP	3	96	5
TAP	3	192	5
TAP	4	0	4
TAP	4	192	4
TAP	5	0	4
TAP	5	96	4
TAP	5	192	4
TAP	6	0	3
TAP	6	192	3
TAP	7	0	3
TAP	7	96	3
TAP	7	192	3
TAP	8	0	2
TAP	8	192	2
TAP	9	0	2
TAP	9	96	2
TAP	9	192	2
TAP	10	0	3
TAP	10	192	3
TAP	11	0	2
TAP	11	96	2
TAP	11	192	2
TAP	11	192	3
TAP	12	0	4
TAP	12	192	4
TAP	13	0	3
TAP	13	96	3
TAP	13	192	3
TAP	13	192	4
TAP	14	0	5
TAP	14	192	5
TAP	15	0	4
TAP	15	96	4
TAP	15	192	4
TAP	15	192	5
BRK	16	0	6
TAP	18	96	6
TAP	18	288	6
TAP	19	96	7
TAP	19	288	7
TAP	20	96	6
TAP	20	288	6
TAP	21	96	7
TAP	21	288	7
TAP	22	0	7
TAP	22	96	7
TAP	22	288	7
TAP	23	96	6
TAP	23	288	6
TAP	24	0	6
TAP	24	96	6
TAP	24	288	6
TAP	25	96	0
TAP	25	96	7
TAP	25	192	0
TAP	25	192	7
TAP	26	96	1
TAP	26	288	1
TAP	27	96	0
TAP	27	288	0
TAP	28	96	1
TAP	28	288	1
TAP	29	96	0
TAP	29	288	0
TAP	30	0	0
TAP	30	96	0
TAP	30	288	0
TAP	31	96	1
TAP	31	288	1
TAP	32	0	1
TAP	32	96	1
TAP	32	288	1
TAP	33	96	0
TAP	33	96	7
TAP	33	192	0
TAP	33	192	7
HLD	34	0	6	192
TAP	34	192	7
HLD	35	0	1	192
TAP	35	192	0
HLD	36	0	7	192
TAP	36	192	6
HLD	37	0	0	192
TAP	37	192	1
HLD	38	0	2	192
TAP	38	192	3
HLD	39	0	5	192
TAP	39	192	4
HLD	40	0	3	192
TAP	40	192	2
HLD	41	0	4	192
TAP	41	192	5
TAP	42	0	7
TAP	42	96	7
TAP	42	192	6
TAP	42	288	6
TAP	43	0	5
TAP	43	96	5
TAP	43	192	4
TAP	43	288	4
TAP	44	0	3
HLD	44	96	3	288
BRK	45	0	2
TAP	46	0	4
TAP	46	96	4
TAP	46	192	3
TAP	46	288	3
TAP	47	0	2
TAP	47	96	2
TAP	47	192	1
TAP	47	288	1
TAP	48	0	0
HLD	48	96	0	288
BRK	49	0	7
TAP	50	0	1
TAP	50	96	1
TAP	50	192	1
TAP	50	288	1
TAP	51	0	0
TAP	51	96	0
TAP	51	192	0
STR	52	0	0
SI_	52	0	0	96	192	5
STR	52	0	1
SI_	52	0	1	96	192	4
TAP	54	0	6
TAP	54	96	6
TAP	54	192	6
TAP	54	288	6
TAP	55	0	7
TAP	55	96	7
TAP	55	192	7
STR	56	0	6
SI_	56	0	6	96	192	3
STR	56	0	7
SI_	56	0	7	96	192	2
TAP	58	0	0
TAP	58	96	0
TAP	58	192	0
TAP	58	288	0
TAP	59	0	7
TAP	59	96	7
TAP	59	192	7
STR	60	0	0
SI_	60	0	0	96	192	3
STR	60	0	7
SI_	60	0	7	96	192	4
HLD	62	0	3	384
HLD	63	0	2	384
HLD	64	0	1	384
BRK	65	0	0
TAP	66	96	7
TAP	66	288	7
TAP	67	96	6
TAP	67	192	6
TAP	67	288	6
TAP	68	96	0
TAP	68	288	0
TAP	69	96	1
TAP	69	192	1
TAP	69	288	1
TAP	70	96	2
TAP	70	288	2
TAP	71	96	3
TAP	71	192	3
TAP	71	288	2
TAP	71	288	3
TAP	72	96	5
TAP	72	288	5
TAP	73	96	4
TAP	73	192	4
TAP	73	288	4
TAP	73	288	5
HLD	74	96	6	192
TAP	74	288	7
TAP	75	96	6
TAP	75	96	7
TAP	75	192	6
TAP	75	192	7
TAP	75	288	6
TAP	75	288	7
HLD	76	96	1	192
TAP	76	288	0
TAP	77	96	0
TAP	77	96	1
TAP	77	192	0
TAP	77	192	1
TAP	77	288	0
TAP	77	288	1
HLD	78	96	3	192
TAP	78	288	4
TAP	79	96	2
TAP	79	96	5
TAP	79	192	2
TAP	79	192	5
TAP	79	288	2
TAP	79	288	5
HLD	80	96	7	192
TAP	80	288	0
TAP	81	96	1
TAP	81	96	6
BRK	81	192	1
BRK	81	192	6
TAP	82	0	5
TAP	82	96	5
TAP	82	192	5
TAP	82	288	4
TAP	82	288	5
TAP	83	0	4
TAP	83	96	4
TAP	83	192	4
STR	84	0	4
SI_	84	0	4	96	192	1
STR	84	0	5
SI_	84	0	5	96	192	0
TAP	86	0	2
TAP	86	96	2
TAP	86	192	2
TAP	86	288	2
TAP	86	288	3
TAP	87	0	3
TAP	87	96	3
TAP	87	192	3
STR	88	0	2
SI_	88	0	2	96	192	7
STR	88	0	3
SI_	88	0	3	96	192	6
TAP	90	0	3
TAP	90	96	3
TAP	90	192	3
TAP	90	288	3
TAP	90	288	4
TAP	91	0	4
TAP	91	96	4
TAP	91	192	4
STR	92	0	3
SI_	92	0	3	96	192	0
STR	92	0	4
SI_	92	0	4	96	192	7
HLD	94	0	4	384
HLD	95	0	5	384
HLD	96	0	6	384
HLD	97	0	7	384
BRK	98	0	0

T_REC_TAP	195
T_REC_BRK	7
T_REC_XTP	0
T_REC_HLD	21
T_REC_XHO	0
T_REC_STR	12
T_REC_BST	0
T_REC_XST	0
T_REC_TTP	0
T_REC_THO	0
T_REC_SLD	12
T_REC_ALL	247
T_NUM_TAP	207
T_NUM_BRK	7
T_NUM_HLD	21
T_NUM_SLD	12
T_NUM_ALL	247
T_JUDGE_TAP	214
T_JUDGE_HLD	116
T_JUDGE_SLD	12
T_JUDGE_ALL	342
TTM_EACHPAIRS	29
TTM_SCR_TAP	103500
TTM_SCR_BRK	18200
TTM_SCR_HLD	21000
TTM_SCR_SLD	18000
TTM_SCR_ALL	160700
TTM_SCR_S	155200
TTM_SCR_SS	160000
TTM_RAT_ACV	10043

