VERSION	0.00.00	1.03.00
FES_MODE	0
BPM_DEF	203.000	203.000	203.000	203.000
MET_DEF	4	4
RESOLUTION	384
CLK_DEF	384
COMPATIBLE_CODE	MA2

BPM	0	0	203.000
MET	0	0	4	4

TAP	2	0	4
TAP	4	0	4
TAP	6	0	3
TAP	8	0	3
HLD	10	0	2	384
HLD	12	0	3	384
HLD	14	0	4	384
BRK	16	0	5
TAP	18	0	6
TAP	18	192	6
TAP	19	0	7
TAP	19	192	7
TAP	20	0	0
TAP	20	192	0
TAP	21	0	1
TAP	21	192	1
HLD	22	0	7	384
HLD	24	0	0	384
TAP	26	0	1
TAP	26	192	1
TAP	27	0	2
TAP	27	192	2
TAP	28	0	3
TAP	28	192	3
TAP	29	0	4
TAP	29	192	4
HLD	30	0	5	384
HLD	32	0	6	384
STR	34	0	5
SI_	34	0	5	96	288	2
STR	36	0	1
SI_	36	0	1	96	288	6
STR	38	0	0
SI_	38	0	0	96	288	3
STR	40	0	7
SI_	40	0	7	96	288	4
TAP	42	96	3
TAP	42	288	3
TAP	43	96	2
TAP	43	288	2
TAP	44	96	1
TAP	44	288	1
TAP	45	96	0
TAP	45	192	0
TAP	46	96	7
TAP	46	288	7
TAP	47	96	6
TAP	47	288	6
TAP	48	96	5
TAP	48	288	5
TAP	49	96	4
TAP	49	192	4
HLD	50	0	3	192
HLD	51	0	2	192
TAP	52	0	3
TAP	52	192	4
TAP	53	0	2
TAP	53	0	5
HLD	54	0	4	192
HLD	55	0	5	192
TAP	56	0	4
TAP	56	192	3
TAP	57	0	2
TAP	57	0	5
HLD	58	0	2	192
HLD	59	0	5	192
HLD	60	0	3	192
HLD	60	0	4	192
TAP	61	0	2
TAP	61	0	5
TAP	62	0	2
TAP	62	192	2
TAP	63	0	1
TAP	63	192	1
HLD	64	0	0	576
TAP	66	96	7
TAP	66	288	7
TAP	67	96	6
TAP	67	288	6
TAP	68	96	5
TAP	68	288	5
TAP	69	96	4
TAP	69	288	4
TAP	70	96	3
TAP	70	288	3
TAP	71	96	2
TAP	71	288	2
TAP	72	96	1
TAP	72	288	1
TAP	73	96	0
TAP	73	192	0
TAP	74	96	7
TAP	74	288	7
TAP	75	96	6
TAP	75	96	7
TAP	75	288	6
TAP	75	288	7
TAP	76	96	0
TAP	76	288	0
TAP	77	96	0
TAP	77	96	1
TAP	77	288	0
TAP	77	288	1
TAP	78	96	1
TAP	78	288	1
TAP	79	96	0
TAP	79	96	7
TAP	79	288	0
TAP	79	288	7
TAP	80	96	6
TAP	80	288	6
TAP	81	96	0
BRK	81	192	0
TAP	82	0	7
TAP	82	96	7
TAP	82	192	7
TAP	83	0	0
TAP	83	96	0
TAP	83	192	0
HLD	84	0	1	384
TAP	86	0	0
TAP	86	96	0
TAP	86	192	0
TAP	87	0	7
TAP	87	96	7
TAP	87	192	7
HLD	88	0	6	384
TAP	90	0	7
TAP	90	96	7
TAP	90	192	0
TAP	91	0	0
TAP	91	96	0
TAP	91	192	7
HLD	92	0	0	384
HLD	92	0	7	384
TAP	94	0	0
TAP	94	192	0
TAP	95	0	7
TAP	95	192	7
HLD	96	0	1	576
HLD	96	0	6	576
BRK	98	0	0

T_REC_TAP	109
T_REC_BRK	3
T_REC_XTP	0
T_REC_HLD	22
T_REC_XHO	0
T_REC_STR	4
T_REC_BST	0
T_REC_XST	0
T_REC_TTP	0
T_REC_THO	0
T_REC_SLD	4
T_REC_ALL	142
T_NUM_TAP	113
T_NUM_BRK	3
T_NUM_HLD	22
T_NUM_SLD	4
T_NUM_ALL	142
T_JUDGE_TAP	116
T_JUDGE_HLD	156
T_JUDGE_SLD	4
T_JUDGE_ALL	276
TTM_EACHPAIRS	12
TTM_SCR_TAP	56500
TTM_SCR_BRK	7800
TTM_SCR_HLD	22000
TTM_SCR_SLD	6000
TTM_SCR_ALL	92300
TTM_SCR_S	89250
TTM_SCR_SS	92000
TTM_RAT_ACV	10032

