VERSION	0.00.00	1.03.00
FES_MODE	0
BPM_DEF	170.000	170.000	170.000	170.000
MET_DEF	4	4
RESOLUTION	384
CLK_DEF	384
COMPATIBLE_CODE	MA2

BPM	0	0	170.000
MET	0	0	4	4

HLD	1	0	0	96
HLD	1	144	0	144
HLD	2	0	4	96
HLD	2	144	4	144
HLD	3	0	3	96
HLD	3	144	3	144
HLD	4	0	7	96
HLD	4	144	7	144
HLD	5	0	0	96
HLD	5	96	1	96
HLD	5	192	2	96
HLD	5	288	3	96
HLD	6	0	4	96
HLD	6	96	5	96
HLD	6	192	6	96
HLD	6	288	7	96
HLD	7	0	0	96
HLD	7	96	2	96
HLD	7	192	4	96
HLD	7	288	6	96
HLD	8	0	1	96
HLD	8	96	7	96
HLD	8	192	0	96
BRK	8	288	7
HLD	9	0	6	240
STR	9	144	0
SCL	9	144	0	96	48	5
HLD	10	0	2	240
STR	10	144	1
SCR	10	144	1	96	48	4
HLD	11	0	0	240
STR	11	144	2
SCL	11	144	2	96	48	7
TAP	12	0	0
HLD	12	48	4	144
HLD	12	192	3	96
TAP	12	288	7
HLD	13	0	1	240
STR	13	144	7
SCR	13	144	7	96	48	2
HLD	14	0	5	240
STR	14	144	6
SCL	14	144	6	96	48	3
HLD	15	0	7	240
STR	15	144	5
SCR	15	144	5	96	48	0
HLD	16	0	7	48
HLD	16	48	6	48
HLD	16	96	5	48
HLD	16	144	4	48
HLD	16	192	3	48
HLD	16	240	2	48
HLD	16	288	1	48
HLD	16	336	0	48
HLD	17	0	7	144
HLD	17	144	5	144
STR	17	288	3
SI_	17	288	3	96	192	0
HLD	19	0	0	144
HLD	19	144	2	144
TAP	19	288	4
HLD	20	0	2	144
HLD	20	144	0	144
TAP	20	288	6
HLD	21	0	7	144
HLD	21	144	3	144
TAP	21	288	4
HLD	22	0	0	144
HLD	22	144	7	96
TAP	22	240	6
TAP	22	288	5
TAP	22	336	4
HLD	23	0	3	144
HLD	23	144	1	144
TAP	23	288	0
BRK	24	0	7
TAP	24	48	7
BRK	24	96	6
TAP	24	144	6
BRK	24	192	5
TAP	24	240	5
BRK	24	288	4
TAP	24	336	4
HLD	25	0	3	96
HLD	25	96	7	96
TAP	25	192	0
TAP	25	240	4
HLD	25	336	1	96
HLD	26	48	0	48
HLD	26	96	7	96
HLD	26	192	6	96
HLD	26	288	2	96
HLD	27	0	3	192
STR	27	48	4
SI_	27	48	4	96	48	0
HLD	27	288	0	144
STR	27	288	7
SI_	27	288	7	96	48	3
HLD	28	144	2	96
TAP	28	192	3
HLD	28	240	4	96
TAP	28	288	5
BRK	28	336	3
TAP	29	192	7
HLD	29	240	6	96
HLD	29	336	4	96
TAP	30	48	3
HLD	30	96	1	96
HLD	30	192	3	96
TAP	30	288	1
TAP	31	0	6
TAP	31	48	4
TAP	31	96	6
HLD	31	144	4	192
TAP	31	240	2
TAP	31	288	1
HLD	31	336	0	240
TAP	33	0	6
TAP	33	48	7
TAP	33	96	0
HLD	33	144	1	96
HLD	33	240	3	96
HLD	33	336	4	144
HLD	34	96	7	96
HLD	34	192	6	96
HLD	34	288	5	96
HLD	35	0	4	96
TAP	35	96	2
TAP	35	144	3
TAP	35	240	5
TAP	35	288	4
HLD	35	336	3	144
HLD	36	96	5	48
HLD	36	144	6	48
HLD	36	192	7	48
HLD	36	240	0	48
HLD	36	288	1	48
HLD	37	0	2	96
TAP	37	96	5
HLD	37	144	7	240
HLD	38	0	0	144
HLD	38	144	7	96
TAP	38	240	5
TAP	38	288	6
TAP	38	336	7
HLD	39	0	0	96
TAP	39	96	1
HLD	39	144	2	144
HLD	39	288	4	144
HLD	40	48	6	144
HLD	40	192	1	96
BRK	40	288	7
STR	41	0	5
SI_	41	0	5	96	48	0
STR	41	96	1
SI_	41	96	1	96	48	4
STR	42	0	0
SCL	42	0	0	96	48	5
STR	42	96	4
SCL	42	96	4	96	48	1
STR	43	0	5
SI_	43	0	5	96	48	2
STR	43	96	1
SI_	43	96	1	96	48	6
TAP	44	0	2
TAP	44	0	6
STR	44	96	2
SCR	44	96	2	96	48	5
STR	44	96	6
SCR	44	96	6	96	48	1
STR	45	0	0
SI_	45	0	0	96	48	4
STR	45	96	7
SI_	45	96	7	96	48	3
STR	45	192	2
SCL	45	192	2	96	48	7
STR	46	0	4
SI_	46	0	4	96	48	0
STR	46	96	3
SI_	46	96	3	96	48	7
STR	46	192	6
SCL	46	192	6	96	48	3
TAP	47	0	3
STR	47	96	7
SCL	47	96	7	96	48	4
STR	47	192	7
SCR	47	192	7	96	48	2
TAP	48	0	7
STR	48	96	3
SCR	48	96	3	96	48	6
STR	48	192	3
SCL	48	192	3	96	48	0
STR	48	288	7
SCR	48	288	7	96	288	2
HLD	50	0	1	144
HLD	50	144	4	96
HLD	50	240	5	144
HLD	51	0	6	144
HLD	51	144	3	96
HLD	51	240	2	144
HLD	52	0	0	144
HLD	52	144	6	96
HLD	52	240	5	144
HLD	53	0	3	144
HLD	53	144	2	96
HLD	53	240	0	144
HLD	54	0	2	144
HLD	54	144	6	96
HLD	54	240	0	144
HLD	55	0	2	144
HLD	55	144	6	96
HLD	55	240	4	144
HLD	56	0	1	144
HLD	56	144	7	96
TAP	56	240	5
TAP	57	0	1
TAP	57	48	0
TAP	57	144	6
TAP	57	192	5
TAP	57	240	4
TAP	58	0	6
TAP	58	48	7
TAP	58	144	0
TAP	58	192	1
TAP	58	240	2
TAP	58	288	7
TAP	58	336	6
TAP	59	48	1
TAP	59	48	2
TAP	59	144	3
TAP	59	144	4
TAP	59	240	5
TAP	59	240	6
HLD	60	0	0	768
HLD	60	0	7	768

T_REC_TAP	60
T_REC_BRK	7
T_REC_XTP	0
T_REC_HLD	112
T_REC_XHO	0
T_REC_STR	28
T_REC_BST	0
T_REC_XST	0
T_REC_TTP	0
T_REC_THO	0
T_REC_SLD	28
T_REC_ALL	235
T_NUM_TAP	88
T_NUM_BRK	7
T_NUM_HLD	112
T_NUM_SLD	28
T_NUM_ALL	235
T_JUDGE_TAP	95
T_JUDGE_HLD	302
T_JUDGE_SLD	28
T_JUDGE_ALL	425
TTM_EACHPAIRS	7
TTM_SCR_TAP	44000
TTM_SCR_BRK	18200
TTM_SCR_HLD	112000
TTM_SCR_SLD	42000
TTM_SCR_ALL	216200
TTM_SCR_S	209050
TTM_SCR_SS	215500
TTM_RAT_ACV	10032

