VERSION	0.00.00	1.03.00
FES_MODE	0
BPM_DEF	170.000	170.000	170.000	170.000
MET_DEF	4	4
RESOLUTION	384
CLK_DEF	384
COMPATIBLE_CODE	MA2

BPM	0	0	170.000
MET	0	0	4	4

HLD	1	0	5	96
TAP	1	144	5
HLD	2	0	4	96
TAP	2	144	4
HLD	3	0	3	96
TAP	3	144	3
HLD	4	0	2	96
TAP	4	144	2
HLD	5	0	6	96
TAP	5	96	5
HLD	5	144	4	144
TAP	5	288	5
HLD	6	0	1	96
TAP	6	96	2
HLD	6	144	3	144
TAP	6	288	2
HLD	7	0	6	96
TAP	7	96	5
HLD	7	144	4	144
TAP	7	288	5
TAP	8	0	2
TAP	8	48	2
TAP	8	144	3
TAP	8	240	3
BRK	8	288	2
BRK	8	288	3
HLD	9	0	0	144
HLD	9	144	1	144
TAP	9	288	2
HLD	10	0	5	144
HLD	10	144	4	144
TAP	10	288	3
HLD	11	0	2	144
HLD	11	144	3	144
TAP	11	288	4
HLD	12	0	7	144
HLD	12	144	6	144
TAP	12	288	5
HLD	13	0	7	144
HLD	13	144	0	144
TAP	13	288	1
HLD	14	0	6	144
HLD	14	144	5	144
TAP	14	288	4
HLD	15	0	1	144
HLD	15	144	2	144
TAP	15	288	3
HLD	16	0	0	96
HLD	16	96	7	96
HLD	16	192	6	96
TAP	16	288	5
HLD	17	0	5	144
HLD	17	144	4	96
TAP	17	240	5
TAP	17	288	4
TAP	17	288	5
HLD	18	0	2	144
HLD	18	144	3	96
TAP	18	240	2
TAP	18	288	2
TAP	18	288	3
HLD	19	0	5	144
HLD	19	144	3	96
TAP	19	240	5
TAP	19	288	3
TAP	19	288	5
HLD	20	0	2	144
HLD	20	144	4	96
TAP	20	240	2
TAP	20	288	2
TAP	20	288	4
HLD	21	0	7	144
HLD	21	144	6	96
TAP	21	240	5
TAP	21	288	4
TAP	21	288	6
HLD	22	0	0	144
HLD	22	144	1	96
TAP	22	240	2
TAP	22	288	1
TAP	22	288	3
HLD	23	0	6	144
HLD	23	144	5	96
TAP	23	240	4
TAP	23	288	3
STR	23	288	5
SCL	23	288	5	96	192	2
HLD	25	0	7	96
HLD	25	96	6	96
TAP	25	192	5
HLD	25	240	5	96
TAP	25	336	4
TAP	26	48	3
HLD	26	96	3	96
HLD	26	192	2	96
TAP	26	288	1
HLD	27	0	0	96
HLD	27	96	1	96
TAP	27	192	2
HLD	27	240	2	96
TAP	27	336	3
TAP	28	48	4
HLD	28	96	4	96
HLD	28	192	5	96
TAP	28	288	6
HLD	29	0	7	96
HLD	29	96	6	96
TAP	29	192	5
STR	29	240	5
SI_	29	240	5	96	48	0
TAP	30	48	0
HLD	30	96	0	96
HLD	30	192	1	96
TAP	30	288	2
HLD	31	0	0	96
HLD	31	96	1	96
TAP	31	192	2
STR	31	240	2
SI_	31	240	2	96	48	7
TAP	32	48	7
HLD	32	96	7	96
HLD	32	192	6	96
TAP	32	288	5
HLD	33	0	7	96
TAP	33	96	6
STR	33	144	6
SI_	33	144	6	96	48	2
HLD	33	336	1	96
HLD	34	48	2	96
TAP	34	144	3
STR	34	192	3
SI_	34	192	3	96	48	7
HLD	35	0	0	96
TAP	35	96	1
STR	35	144	1
SI_	35	144	1	96	48	5
HLD	35	336	6	96
HLD	36	48	5	96
TAP	36	144	4
STR	36	192	4
SI_	36	192	4	96	48	0
HLD	37	0	7	96
TAP	37	96	6
STR	37	144	6
SI_	37	144	6	96	48	2
HLD	37	336	1	96
HLD	38	48	2	96
TAP	38	144	3
STR	38	192	3
SI_	38	192	3	96	48	7
HLD	39	0	0	96
TAP	39	96	1
STR	39	144	1
SI_	39	144	1	96	48	5
HLD	39	336	6	96
HLD	40	48	5	96
TAP	40	144	4
STR	40	192	4
SI_	40	192	4	96	48	0
STR	41	0	7
SI_	41	0	7	96	48	3
TAP	41	96	0
TAP	41	144	0
TAP	41	288	4
TAP	41	288	5
STR	42	0	0
SI_	42	0	0	96	48	4
TAP	42	96	7
TAP	42	144	7
TAP	42	288	2
TAP	42	288	3
STR	43	0	7
SI_	43	0	7	96	48	3
TAP	43	96	1
TAP	43	144	1
TAP	43	288	4
TAP	43	288	6
STR	44	0	0
SI_	44	0	0	96	48	4
TAP	44	96	6
TAP	44	144	6
TAP	44	288	1
TAP	44	288	3
STR	45	0	7
SI_	45	0	7	96	48	3
TAP	45	96	0
TAP	45	144	0
TAP	45	240	5
TAP	45	288	4
TAP	45	288	5
STR	46	0	0
SI_	46	0	0	96	48	4
TAP	46	96	7
TAP	46	144	7
TAP	46	240	2
TAP	46	288	2
TAP	46	288	3
STR	47	0	7
SI_	47	0	7	96	48	3
TAP	47	96	1
TAP	47	144	1
TAP	47	240	5
TAP	47	288	4
TAP	47	288	6
STR	48	0	0
SI_	48	0	0	96	48	4
TAP	48	96	6
TAP	48	144	6
TAP	48	240	2
TAP	48	288	1
TAP	48	288	3
STR	49	0	1
SI_	49	0	1	96	48	5
STR	49	144	7
SI_	49	144	7	96	48	3
TAP	49	288	5
STR	50	0	6
SI_	50	0	6	96	48	2
STR	50	144	0
SI_	50	144	0	96	48	4
TAP	50	288	2
STR	51	0	7
SI_	51	0	7	96	48	3
STR	51	144	1
SI_	51	144	1	96	48	5
TAP	51	288	3
STR	52	0	0
SI_	52	0	0	96	48	4
STR	52	144	6
SI_	52	144	6	96	48	2
TAP	52	288	4
STR	53	0	1
SI_	53	0	1	96	48	5
STR	53	144	7
SI_	53	144	7	96	48	4
TAP	53	288	5
STR	54	0	6
SI_	54	0	6	96	48	2
STR	54	144	0
SI_	54	144	0	96	48	3
TAP	54	288	2
STR	55	0	1
SI_	55	0	1	96	48	5
STR	55	144	0
SI_	55	144	0	96	48	4
TAP	55	288	5
STR	56	0	6
SI_	56	0	6	96	48	2
STR	56	144	7
SI_	56	144	7	96	48	3
TAP	56	288	2
STR	57	0	0
SCR	57	0	0	96	48	3
STR	57	144	5
SCR	57	144	5	96	48	0
TAP	57	288	4
STR	58	0	7
SCL	58	0	7	96	48	4
STR	58	144	2
SCL	58	144	2	96	48	7
TAP	58	288	3
HLD	59	48	2	96
TAP	59	48	3
HLD	59	144	3	96
TAP	59	240	2
BRK	60	0	1
BRK	60	0	6

T_REC_TAP	112
T_REC_BRK	4
T_REC_XTP	0
T_REC_HLD	73
T_REC_XHO	0
T_REC_STR	39
T_REC_BST	0
T_REC_XST	0
T_REC_TTP	0
T_REC_THO	0
T_REC_SLD	39
T_REC_ALL	267
T_NUM_TAP	151
T_NUM_BRK	4
T_NUM_HLD	73
T_NUM_SLD	39
T_NUM_ALL	267
T_JUDGE_TAP	155
T_JUDGE_HLD	170
T_JUDGE_SLD	39
T_JUDGE_ALL	364
TTM_EACHPAIRS	18
TTM_SCR_TAP	75500
TTM_SCR_BRK	10400
TTM_SCR_HLD	73000
TTM_SCR_SLD	58500
TTM_SCR_ALL	217400
TTM_SCR_S	210500
TTM_SCR_SS	217000
TTM_RAT_ACV	10018

