VERSION	0.00.00	1.03.00
FES_MODE	0
BPM_DEF	170.000	170.000	170.000	170.000
MET_DEF	4	4
RESOLUTION	384
CLK_DEF	384
COMPATIBLE_CODE	MA2

BPM	0	0	170.000
MET	0	0	4	4

BRK	4	0	0
BRK	4	0	7
HLD	5	0	0	144
TAP	5	288	7
HLD	6	0	7	192
HLD	7	0	6	144
TAP	7	288	5
HLD	8	0	5	192
TAP	9	0	5
TAP	9	96	5
TAP	9	192	4
TAP	9	288	4
TAP	10	0	3
TAP	10	96	3
TAP	10	192	2
TAP	11	0	1
TAP	11	96	1
TAP	11	192	0
TAP	11	288	0
TAP	12	0	7
TAP	12	96	7
TAP	12	192	6
HLD	13	0	0	384
HLD	14	0	2	384
HLD	15	0	4	384
HLD	16	0	6	192
STR	17	0	0
SI_	17	0	0	96	192	3
STR	19	0	7
SI_	19	0	7	96	192	4
STR	20	0	0
SI_	20	0	0	96	192	3
TAP	21	0	4
TAP	21	96	5
TAP	21	192	6
TAP	21	288	7
TAP	22	0	0
TAP	22	96	1
TAP	22	192	2
TAP	22	288	3
HLD	23	0	6	144
HLD	24	0	1	144
TAP	25	0	1
TAP	25	96	0
TAP	25	192	7
TAP	25	288	6
TAP	26	0	5
TAP	26	96	4
TAP	26	192	3
TAP	26	288	2
HLD	27	0	1	144
HLD	27	0	6	144
HLD	27	288	0	144
HLD	27	288	7	144
BRK	28	192	0
BRK	28	288	0
HLD	29	192	1	144
TAP	30	96	2
TAP	30	192	3
TAP	30	288	4
TAP	31	0	5
TAP	31	96	6
TAP	31	192	7
STR	31	288	0
SI_	31	288	0	96	192	4
TAP	33	0	6
TAP	33	96	6
TAP	33	192	7
TAP	33	288	7
TAP	34	0	0
TAP	34	96	0
TAP	34	192	1
TAP	34	288	1
TAP	35	0	7
TAP	35	96	7
TAP	35	192	0
TAP	35	288	0
TAP	36	0	6
TAP	36	96	6
TAP	36	192	1
TAP	36	288	1
STR	37	0	7
SI_	37	0	7	96	192	3
STR	39	0	0
SI_	39	0	0	96	192	4
STR	40	0	6
SI_	40	0	6	96	192	2
HLD	41	0	1	96
TAP	41	192	2
TAP	41	240	2
HLD	41	336	6	144
TAP	42	192	5
TAP	42	240	5
HLD	42	336	0	144
TAP	43	96	1
TAP	43	192	2
TAP	43	288	3
TAP	44	0	4
TAP	44	96	5
TAP	44	192	6
BRK	44	288	0
BRK	44	288	7
TAP	45	0	6
TAP	45	96	5
TAP	45	192	4
TAP	45	240	4
HLD	45	336	3	192
TAP	46	144	2
TAP	46	288	1
HLD	47	0	1	144
TAP	47	144	0
HLD	47	288	0	192
TAP	48	192	1
TAP	48	288	2
BRK	49	0	3
BRK	49	0	4
HLD	51	0	0	144
HLD	52	0	2	144
HLD	53	0	4	144
HLD	54	0	6	144
STR	55	0	0
SI_	55	0	0	96	192	4
STR	56	0	7
SI_	56	0	7	96	192	3
TAP	57	0	1
TAP	57	96	0
TAP	57	192	7
TAP	57	288	6
TAP	58	0	5
TAP	58	96	4
TAP	58	192	3
TAP	58	288	2
HLD	59	0	1	289
BRK	60	0	0
BRK	60	0	7

T_REC_TAP	81
T_REC_BRK	10
T_REC_XTP	0
T_REC_HLD	26
T_REC_XHO	0
T_REC_STR	9
T_REC_BST	0
T_REC_XST	0
T_REC_TTP	0
T_REC_THO	0
T_REC_SLD	9
T_REC_ALL	135
T_NUM_TAP	90
T_NUM_BRK	10
T_NUM_HLD	26
T_NUM_SLD	9
T_NUM_ALL	135
T_JUDGE_TAP	100
T_JUDGE_HLD	101
T_JUDGE_SLD	9
T_JUDGE_ALL	210
TTM_EACHPAIRS	6
TTM_SCR_TAP	45000
TTM_SCR_BRK	26000
TTM_SCR_HLD	26000
TTM_SCR_SLD	13500
TTM_SCR_ALL	110500
TTM_SCR_S	106250
TTM_SCR_SS	109500
TTM_RAT_ACV	10091

