VERSION	0.00.00	1.03.00
FES_MODE	0
BPM_DEF	145.000	145.000	145.000	145.000
MET_DEF	4	4
RESOLUTION	384
CLK_DEF	384
COMPATIBLE_CODE	MA2

BPM	0	0	145.000
MET	0	0	4	4

TAP	1	0	3
TAP	1	0	4
TAP	1	96	6
TAP	1	144	5
TAP	1	192	4
TAP	1	288	2
TAP	1	288	5
TAP	2	0	3
TAP	2	0	4
TAP	2	96	1
TAP	2	144	2
TAP	2	192	3
TAP	2	288	2
TAP	2	288	5
TAP	3	0	3
TAP	3	0	4
TAP	3	96	7
TAP	3	144	6
TAP	3	192	5
TAP	3	288	4
TAP	3	288	5
TAP	4	0	3
TAP	4	0	4
TAP	4	96	0
TAP	4	144	1
TAP	4	192	2
TAP	4	288	2
TAP	4	288	3
TAP	5	0	3
TAP	5	0	4
TAP	5	96	0
TAP	5	144	6
TAP	5	192	4
TAP	5	288	2
TAP	5	288	3
TAP	6	0	3
TAP	6	0	4
TAP	6	96	7
TAP	6	144	1
TAP	6	192	3
TAP	6	288	4
TAP	6	288	5
TAP	7	0	0
STR	7	96	7
SI_	7	96	7	96	48	3
TAP	7	144	7
TAP	7	240	2
TAP	7	288	2
TAP	7	288	3
TAP	8	0	7
STR	8	96	0
SI_	8	96	0	96	48	4
TAP	8	144	0
TAP	8	240	5
TAP	8	288	4
TAP	8	288	5
TAP	9	0	6
TAP	9	0	7
STR	9	96	6
SI_	9	96	6	96	48	3
TAP	9	144	6
TAP	9	144	7
TAP	9	240	2
TAP	9	288	2
TAP	9	288	3
TAP	10	0	0
TAP	10	0	1
STR	10	96	1
SI_	10	96	1	96	48	4
TAP	10	144	0
TAP	10	144	1
TAP	10	240	5
TAP	10	288	4
TAP	10	288	5
TAP	11	48	0
TAP	11	48	1
TAP	11	144	7
TAP	11	192	5
TAP	11	192	6
TAP	11	288	5
TAP	11	336	4
TAP	12	0	2
TAP	12	0	3
TAP	12	48	1
TAP	12	96	0
TAP	12	144	7
TAP	12	192	5
TAP	12	192	6
TAP	12	240	4
TAP	13	48	6
TAP	13	48	7
TAP	13	144	0
TAP	13	192	1
TAP	13	192	2
TAP	13	288	2
TAP	13	336	3
TAP	14	0	4
TAP	14	0	5
TAP	14	48	6
TAP	14	96	7
TAP	14	144	0
STR	14	192	1
SI_	14	192	1	96	48	4
STR	14	288	6
SI_	14	288	6	96	48	3
TAP	15	48	4
TAP	15	48	5
TAP	15	144	3
TAP	15	192	1
TAP	15	192	2
TAP	15	288	1
TAP	15	336	0
TAP	16	0	6
TAP	16	0	7
TAP	16	48	5
TAP	16	96	3
TAP	16	96	4
TAP	16	144	2
TAP	16	192	0
TAP	16	192	1
TAP	16	240	7
TAP	17	48	2
TAP	17	48	3
TAP	17	144	4
TAP	17	192	5
TAP	17	192	6
TAP	17	288	6
TAP	17	336	7
TAP	18	0	0
TAP	18	0	1
TAP	18	48	2
TAP	18	96	3
TAP	18	96	4
TAP	18	144	5
STR	18	192	6
SCL	18	192	6	96	48	3
HLD	19	0	0	96
TAP	19	96	2
HLD	19	144	2	96
TAP	19	240	4
TAP	19	288	6
HLD	20	0	7	96
TAP	20	96	5
HLD	20	144	5	96
TAP	20	240	3
TAP	20	288	1
HLD	21	0	0	96
TAP	21	96	2
HLD	21	144	2	96
TAP	21	240	4
TAP	21	288	5
TAP	21	336	6
HLD	22	0	7	96
TAP	22	96	5
HLD	22	144	5	96
TAP	22	240	3
TAP	22	288	2
BRK	22	336	1
TAP	23	48	7
TAP	23	96	7
TAP	23	144	7
STR	23	192	7
SI_	23	192	7	96	48	2
TAP	23	240	7
TAP	23	288	7
TAP	23	336	7
HLD	24	0	7	144
HLD	24	144	6	144
TAP	24	288	5
TAP	25	48	0
TAP	25	96	0
TAP	25	144	0
STR	25	192	0
SI_	25	192	0	96	48	5
TAP	25	240	0
TAP	25	288	0
TAP	25	336	0
HLD	26	0	0	144
HLD	26	144	1	144
TAP	26	288	2
TAP	27	48	6
TAP	27	96	6
TAP	27	144	6
STR	27	192	6
SCR	27	192	6	96	48	1
TAP	27	240	6
TAP	27	288	6
TAP	27	336	6
HLD	28	0	6	144
HLD	28	144	7	144
HLD	28	288	0	96
HLD	29	0	1	96
TAP	29	96	3
HLD	29	144	3	96
TAP	29	240	5
HLD	29	288	5	96
HLD	30	0	6	96
TAP	30	96	4
HLD	30	144	4	96
TAP	30	240	2
HLD	30	288	2	96
BRK	31	0	1
STR	31	48	0
SCL	31	48	0	96	48	5
TAP	31	96	0
TAP	31	144	0
STR	31	192	0
SCR	31	192	0	96	48	3
TAP	31	240	0
TAP	31	288	0
TAP	31	336	0
HLD	32	0	0	96
TAP	32	96	2
HLD	32	144	2	96
TAP	32	240	4
TAP	32	288	6
STR	33	48	7
SCR	33	48	7	96	48	2
TAP	33	96	7
TAP	33	144	7
STR	33	192	7
SCL	33	192	7	96	48	4
TAP	33	240	7
TAP	33	288	7
TAP	33	336	7
HLD	34	0	7	96
TAP	34	96	5
HLD	34	144	5	96
TAP	34	240	3
TAP	34	288	1
STR	35	48	1
SCR	35	48	1	96	48	4
TAP	35	96	1
TAP	35	144	1
STR	35	192	1
SCL	35	192	1	96	48	6
TAP	35	240	1
TAP	35	288	1
TAP	35	336	1
HLD	36	0	1	96
TAP	36	96	7
HLD	36	144	7	96
TAP	36	240	5
HLD	36	288	5	96
STR	37	0	3
SI_	37	0	3	96	48	7
STR	37	144	4
SI_	37	144	4	96	48	0
STR	37	288	2
SCL	37	288	2	96	96	7
HLD	38	144	0	96
TAP	38	240	1
TAP	38	288	2
TAP	38	336	3
STR	39	0	4
SCR	39	0	4	96	48	7
STR	39	144	0
SCR	39	144	0	96	48	3
STR	39	288	5
SCR	39	288	5	96	48	0
STR	40	144	1
SCR	40	144	1	96	48	4
BRK	40	288	5
TAP	41	0	0
TAP	41	48	1
TAP	41	48	2
TAP	41	96	3
TAP	41	144	1
TAP	41	144	2
TAP	41	240	4
TAP	41	240	5
TAP	41	336	6
TAP	41	336	7
TAP	42	0	7
TAP	42	48	5
TAP	42	48	6
TAP	42	96	4
TAP	42	144	5
TAP	42	144	6
TAP	42	240	2
TAP	42	240	3
TAP	42	336	0
TAP	42	336	1
TAP	43	0	1
TAP	43	48	2
TAP	43	48	3
TAP	43	96	4
TAP	43	144	5
TAP	43	144	6
TAP	43	240	7
TAP	43	336	7
HLD	44	0	7	96
HLD	44	96	1	96
HLD	44	192	3	96
BRK	45	0	0
BRK	45	48	1
BRK	45	96	2
BRK	45	144	3
STR	45	192	4
SCR	45	192	4	96	48	7
TAP	46	0	0
TAP	46	48	1
TAP	46	96	2
TAP	46	144	3
TAP	46	192	4
TAP	46	192	5
TAP	46	288	6
TAP	46	288	7
STR	47	0	0
SCR	47	0	0	96	96	3
STR	47	96	3
SCR	47	96	3	96	96	6
STR	47	192	6
SCR	47	192	6	96	96	1
STR	48	0	2
SI_	48	0	2	96	48	6
BRK	48	96	7
STR	48	192	0
SI_	48	192	0	96	48	3
STR	48	192	7
SI_	48	192	7	96	48	4
TAP	49	0	2
TAP	49	48	3
TAP	49	96	4
TAP	49	144	5
TAP	49	192	6
TAP	49	192	7
TAP	49	240	0
TAP	49	240	1
TAP	49	288	2
TAP	49	288	3
TAP	49	336	4
TAP	49	336	5
TAP	50	0	6
TAP	50	48	7
TAP	50	96	0
TAP	50	144	1
TAP	50	192	2
TAP	50	192	3
TAP	50	240	4
TAP	50	240	5
TAP	50	288	6
TAP	50	288	7
TAP	50	336	0
TAP	50	336	1
STR	51	0	2
SI_	51	0	2	96	48	7
STR	51	144	5
SI_	51	144	5	96	48	0
STR	51	288	3
SI_	51	288	3	96	48	7
STR	52	48	4
SI_	52	48	4	96	48	0
STR	52	192	2
SI_	52	192	2	96	48	7
STR	52	288	5
SI_	52	288	5	96	48	0
STR	53	48	7
SI_	53	48	7	96	48	2
TAP	53	96	7
STR	53	144	7
SI_	53	144	7	96	48	4
TAP	53	192	7
STR	53	240	7
SI_	53	240	7	96	48	3
TAP	53	288	7
TAP	53	336	7
HLD	54	0	7	96
TAP	54	96	5
HLD	54	144	5	96
TAP	54	240	3
TAP	54	288	1
STR	55	48	0
SI_	55	48	0	96	48	5
TAP	55	96	0
STR	55	144	0
SI_	55	144	0	96	48	3
TAP	55	192	0
STR	55	240	0
SI_	55	240	0	96	48	4
TAP	55	288	0
TAP	55	336	0
HLD	56	0	0	96
TAP	56	96	2
HLD	56	144	2	96
TAP	56	240	4
TAP	56	288	6
STR	57	48	7
SCR	57	48	7	96	48	2
TAP	57	96	7
STR	57	144	7
SCL	57	144	7	96	48	4
TAP	57	192	7
STR	57	240	7
SI_	57	240	7	96	48	3
TAP	57	288	7
TAP	57	336	7
HLD	58	0	7	96
STR	58	96	0
SCL	58	96	0	96	48	5
TAP	58	144	0
STR	58	192	0
SCR	58	192	0	96	48	3
TAP	58	240	0
STR	58	288	0
SI_	58	288	0	96	48	4
TAP	58	336	0
HLD	59	0	0	96
TAP	59	96	1
TAP	59	144	2
TAP	59	144	3
TAP	59	240	4
TAP	59	288	5
TAP	59	288	6
HLD	60	0	7	96
TAP	60	96	6
TAP	60	144	4
TAP	60	144	5
TAP	60	240	3
TAP	60	288	1
TAP	60	288	2
HLD	61	0	0	96
TAP	61	96	6
TAP	61	144	2
TAP	61	144	3
TAP	61	240	1
TAP	61	288	4
TAP	61	288	5
STR	62	0	0
SCL	62	0	0	96	96	5
BRK	62	288	4

T_REC_TAP	284
T_REC_BRK	9
T_REC_XTP	0
T_REC_HLD	40
T_REC_XHO	0
T_REC_STR	49
T_REC_BST	0
T_REC_XST	0
T_REC_TTP	0
T_REC_THO	0
T_REC_SLD	49
T_REC_ALL	431
T_NUM_TAP	333
T_NUM_BRK	9
T_NUM_HLD	40
T_NUM_SLD	49
T_NUM_ALL	431
T_JUDGE_TAP	342
T_JUDGE_HLD	86
T_JUDGE_SLD	49
T_JUDGE_ALL	477
TTM_EACHPAIRS	63
TTM_SCR_TAP	166500
TTM_SCR_BRK	23400
TTM_SCR_HLD	40000
TTM_SCR_SLD	73500
TTM_SCR_ALL	303400
TTM_SCR_S	293450
TTM_SCR_SS	302500
TTM_RAT_ACV	10029

