VERSION	0.00.00	1.03.00
FES_MODE	0
BPM_DEF	145.000	145.000	145.000	145.000
MET_DEF	4	4
RESOLUTION	384
CLK_DEF	384
COMPATIBLE_CODE	MA2

BPM	0	0	145.000
MET	0	0	4	4

TAP	1	96	1
TAP	1	288	2
TAP	2	96	3
TAP	2	288	4
TAP	3	0	3
TAP	3	96	3
TAP	3	192	2
TAP	3	288	2
TAP	4	0	1
TAP	4	96	1
TAP	4	192	0
TAP	4	288	0
TAP	5	0	1
TAP	5	96	1
TAP	5	192	3
TAP	5	288	3
TAP	6	0	5
TAP	6	96	5
TAP	6	192	7
TAP	6	288	7
STR	7	0	0
SI_	7	0	0	96	192	4
STR	8	0	3
SI_	8	0	3	96	192	7
STR	9	0	6
SI_	9	0	6	96	192	2
STR	10	0	7
SI_	10	0	7	96	192	3
HLD	11	0	1	96
TAP	11	96	7
HLD	11	144	6	96
TAP	11	240	5
TAP	11	288	4
TAP	11	336	4
TAP	12	0	6
TAP	12	48	7
TAP	12	96	0
TAP	12	144	1
TAP	12	192	2
HLD	12	240	3	144
HLD	13	0	0	96
TAP	13	96	6
HLD	13	144	5	96
TAP	13	240	4
TAP	13	288	3
TAP	13	336	3
TAP	14	0	5
TAP	14	48	6
TAP	14	96	7
BRK	14	144	0
HLD	15	0	1	96
TAP	15	96	3
HLD	15	144	4	96
TAP	15	240	5
TAP	15	288	6
TAP	15	336	6
TAP	16	0	4
TAP	16	48	3
TAP	16	96	2
TAP	16	144	1
TAP	16	192	0
HLD	16	240	7	144
HLD	17	0	0	96
TAP	17	96	2
HLD	17	144	3	96
TAP	17	240	4
TAP	17	288	5
TAP	17	336	5
TAP	18	0	3
TAP	18	48	2
TAP	18	96	1
BRK	18	144	0
HLD	19	0	2	384
HLD	20	0	3	384
HLD	21	0	4	384
HLD	22	0	5	384
STR	23	0	0
SI_	23	0	0	96	48	3
STR	23	144	6
SI_	23	144	6	96	48	3
TAP	23	288	7
STR	24	0	1
SI_	24	0	1	96	48	4
HLD	24	144	5	96
TAP	24	240	6
STR	25	0	7
SI_	25	0	7	96	48	4
STR	25	144	1
SI_	25	144	1	96	48	4
TAP	25	288	0
STR	26	0	6
SI_	26	0	6	96	48	3
HLD	26	144	2	96
TAP	26	240	1
STR	27	0	0
SI_	27	0	0	96	48	3
STR	27	144	6
SI_	27	144	6	96	48	3
TAP	27	288	7
STR	28	0	1
SI_	28	0	1	96	48	4
STR	28	144	0
SCL	28	144	0	96	48	5
TAP	28	288	2
TAP	28	336	1
HLD	29	0	0	288
STR	30	0	6
SI_	30	0	6	96	48	3
STR	30	144	1
SI_	30	144	1	96	48	4
BRK	30	288	7
STR	31	0	0
SI_	31	0	0	96	48	3
STR	31	144	6
SI_	31	144	6	96	48	3
TAP	31	288	7
STR	32	0	7
SI_	32	0	7	96	48	4
STR	32	144	1
SI_	32	144	1	96	48	4
TAP	32	288	0
STR	33	0	0
SI_	33	0	0	96	48	3
STR	33	144	6
SI_	33	144	6	96	48	3
TAP	33	288	7
STR	34	0	7
SI_	34	0	7	96	48	4
STR	34	144	1
SI_	34	144	1	96	48	4
TAP	34	288	0
TAP	35	0	7
TAP	35	48	6
TAP	35	96	5
TAP	35	144	4
TAP	35	192	3
TAP	35	240	2
TAP	35	288	1
TAP	35	336	0
HLD	36	0	0	96
TAP	36	96	1
TAP	36	144	1
TAP	36	192	2
TAP	36	240	7
TAP	36	288	6
TAP	36	336	5
STR	37	0	6
SI_	37	0	6	96	48	2
STR	37	144	0
SI_	37	144	0	96	48	4
TAP	37	288	5
HLD	38	0	3	144
HLD	38	144	1	96
TAP	38	240	0
HLD	38	288	0	96
STR	39	0	7
SI_	39	0	7	96	48	4
STR	39	144	1
SI_	39	144	1	96	48	6
TAP	39	288	0
STR	40	0	0
SI_	40	0	0	96	48	3
STR	40	144	6
SI_	40	144	6	96	48	1
BRK	40	288	7
HLD	41	0	1	192
TAP	41	240	1
HLD	41	336	3	240
TAP	42	240	3
HLD	42	336	5	240
TAP	43	240	5
HLD	43	336	7	144
STR	44	96	0
SI_	44	96	0	96	48	3
TAP	45	0	7
TAP	45	48	7
TAP	45	96	6
TAP	45	144	6
TAP	45	192	4
TAP	45	240	4
TAP	45	288	3
TAP	45	336	3
TAP	46	0	5
TAP	46	48	5
TAP	46	96	7
TAP	46	144	7
STR	46	192	0
SI_	46	192	0	96	48	3
TAP	47	0	4
TAP	47	48	4
TAP	47	96	2
TAP	47	144	2
TAP	47	192	0
TAP	47	240	0
TAP	47	288	7
TAP	47	336	7
TAP	48	0	1
TAP	48	48	1
TAP	48	96	3
TAP	48	144	3
STR	48	192	4
SI_	48	192	4	96	48	7
TAP	49	0	0
TAP	49	48	1
TAP	49	96	2
TAP	49	144	3
TAP	49	192	7
TAP	49	240	6
TAP	49	288	5
TAP	49	336	4
TAP	50	0	3
TAP	50	48	3
TAP	50	96	5
TAP	50	144	5
TAP	50	192	7
TAP	50	240	7
BRK	50	288	0
STR	51	0	0
SCR	51	0	0	96	192	3
STR	51	0	7
SCL	51	0	7	96	192	4
STR	53	0	7
SI_	53	0	7	96	48	2
STR	53	144	1
SI_	53	144	1	96	48	4
TAP	53	288	6
STR	54	0	6
SCL	54	0	6	96	48	3
HLD	54	144	1	96
TAP	54	240	2
TAP	54	288	2
STR	55	0	0
SI_	55	0	0	96	48	5
STR	55	144	6
SI_	55	144	6	96	48	3
TAP	55	288	1
STR	56	0	1
SCR	56	0	1	96	48	4
HLD	56	144	6	96
TAP	56	240	5
TAP	56	288	5
STR	57	0	0
SI_	57	0	0	96	48	4
STR	57	144	1
SCL	57	144	1	96	48	6
TAP	57	288	5
STR	58	0	7
SI_	58	0	7	96	48	3
STR	58	144	6
SCR	58	144	6	96	48	1
TAP	58	288	2
HLD	59	0	1	288
STR	60	0	0
SI_	60	0	0	96	48	4
STR	60	144	6
SI_	60	144	6	96	48	2
TAP	60	288	7
STR	61	0	7
SI_	61	0	7	96	48	3
STR	61	144	1
SI_	61	144	1	96	48	5
TAP	61	288	0
STR	62	0	0
SCR	62	0	0	96	48	3
STR	62	144	5
SCR	62	144	5	96	48	0
BRK	62	288	4

T_REC_TAP	131
T_REC_BRK	6
T_REC_XTP	0
T_REC_HLD	28
T_REC_XHO	0
T_REC_STR	51
T_REC_BST	0
T_REC_XST	0
T_REC_TTP	0
T_REC_THO	0
T_REC_SLD	51
T_REC_ALL	267
T_NUM_TAP	182
T_NUM_BRK	6
T_NUM_HLD	28
T_NUM_SLD	51
T_NUM_ALL	267
T_JUDGE_TAP	188
T_JUDGE_HLD	100
T_JUDGE_SLD	51
T_JUDGE_ALL	339
TTM_EACHPAIRS	1
TTM_SCR_TAP	91000
TTM_SCR_BRK	15600
TTM_SCR_HLD	28000
TTM_SCR_SLD	76500
TTM_SCR_ALL	211100
TTM_SCR_S	204200
TTM_SCR_SS	210500
TTM_RAT_ACV	10028

