VERSION	0.00.00	1.03.00
FES_MODE	0
BPM_DEF	145.000	145.000	145.000	145.000
MET_DEF	4	4
RESOLUTION	384
CLK_DEF	384
COMPATIBLE_CODE	MA2

BPM	0	0	145.000
MET	0	0	4	4

TAP	1	96	0
TAP	1	96	7
TAP	1	288	0
TAP	1	288	7
TAP	2	96	0
TAP	2	96	7
TAP	2	288	0
TAP	2	288	7
TAP	3	0	1
TAP	3	96	2
TAP	3	192	3
TAP	3	288	4
TAP	4	0	5
TAP	4	96	5
TAP	4	192	7
TAP	4	288	7
TAP	5	0	6
TAP	5	96	5
TAP	5	192	4
TAP	5	288	3
TAP	6	0	2
TAP	6	96	2
TAP	6	192	0
TAP	6	288	0
HLD	7	0	1	288
HLD	8	0	3	288
HLD	9	0	5	288
HLD	10	0	7	288
TAP	11	0	0
TAP	11	96	1
TAP	11	192	0
TAP	11	288	6
TAP	11	288	7
TAP	12	0	5
TAP	12	96	4
TAP	12	192	3
TAP	12	288	1
TAP	12	288	2
TAP	13	0	3
TAP	13	96	4
TAP	13	192	5
TAP	13	288	0
TAP	13	288	7
TAP	14	0	6
TAP	14	96	4
TAP	14	192	2
TAP	14	288	1
TAP	14	288	6
TAP	15	0	2
TAP	15	96	3
TAP	15	192	4
TAP	15	288	0
TAP	15	288	7
TAP	16	0	5
TAP	16	96	4
TAP	16	192	3
TAP	16	288	0
TAP	16	288	7
TAP	17	0	2
TAP	17	96	3
TAP	17	192	4
TAP	17	288	0
TAP	17	288	7
TAP	18	0	6
TAP	18	96	4
TAP	18	192	2
TAP	18	288	0
STR	19	0	0
SI_	19	0	0	96	192	5
STR	20	0	7
SI_	20	0	7	96	192	2
STR	21	0	3
SI_	21	0	3	96	192	7
STR	22	0	4
SI_	22	0	4	96	192	0
TAP	23	0	1
TAP	23	96	0
TAP	23	192	7
TAP	23	288	6
TAP	24	0	7
TAP	24	96	0
TAP	24	144	0
TAP	24	240	7
TAP	25	0	5
TAP	25	96	4
TAP	25	192	3
TAP	25	288	2
TAP	26	0	3
TAP	26	96	4
TAP	26	144	4
TAP	26	240	3
TAP	27	0	3
TAP	27	96	2
TAP	27	192	1
TAP	27	288	0
TAP	28	0	7
TAP	28	96	0
TAP	28	144	0
TAP	28	240	7
STR	29	0	0
SI_	29	0	0	96	192	3
HLD	30	0	2	144
HLD	30	0	6	144
BRK	30	288	0
BRK	30	288	7
TAP	31	0	4
TAP	31	96	5
TAP	31	192	6
TAP	31	288	7
HLD	32	0	0	96
HLD	32	144	7	96
TAP	33	0	7
TAP	33	96	6
TAP	33	192	5
TAP	33	288	4
HLD	34	0	3	96
HLD	34	144	4	96
TAP	35	0	4
TAP	35	96	5
TAP	35	192	6
TAP	35	288	7
TAP	36	0	0
TAP	36	96	1
TAP	36	192	2
TAP	36	288	3
STR	37	0	4
SI_	37	0	4	96	192	0
HLD	38	0	7	144
STR	39	0	0
SI_	39	0	0	96	192	3
STR	39	0	7
SI_	39	0	7	96	192	4
HLD	40	0	3	144
HLD	40	0	4	144
BRK	40	288	1
BRK	40	288	6
STR	41	0	0
SI_	41	0	0	96	192	4
STR	42	0	6
SI_	42	0	6	96	192	2
STR	43	0	1
SI_	43	0	1	96	192	5
STR	44	0	4
SI_	44	0	4	96	192	0
TAP	45	0	1
TAP	45	96	2
TAP	45	192	3
TAP	45	288	4
BRK	45	288	5
TAP	46	0	3
TAP	46	96	2
TAP	46	192	1
TAP	46	288	0
BRK	46	288	7
TAP	47	0	1
TAP	47	96	3
TAP	47	192	5
BRK	47	288	0
TAP	48	0	7
TAP	48	96	5
TAP	48	192	3
BRK	48	288	1
HLD	49	0	0	96
HLD	49	0	7	96
HLD	49	192	6	96
HLD	49	192	7	96
TAP	50	0	0
TAP	50	0	7
TAP	50	96	0
TAP	50	96	7
TAP	50	192	0
TAP	50	192	1
BRK	50	288	0
BRK	50	288	1
STR	51	0	0
SCR	51	0	0	96	288	3
STR	51	0	7
SCL	51	0	7	96	288	4
TAP	53	0	0
TAP	53	96	2
TAP	53	192	4
TAP	53	288	6
TAP	54	0	0
TAP	54	96	7
TAP	54	144	7
TAP	54	240	0
TAP	55	0	7
TAP	55	96	5
TAP	55	192	3
TAP	55	288	1
TAP	56	0	7
TAP	56	96	0
TAP	56	144	0
TAP	56	240	7
TAP	57	0	0
TAP	57	96	1
TAP	57	192	2
TAP	57	288	3
TAP	58	0	4
TAP	58	96	5
TAP	58	192	6
STR	58	288	7
SI_	58	288	7	96	192	3
HLD	60	0	0	144
HLD	60	0	1	144
TAP	60	288	0
TAP	60	288	7
STR	61	0	6
SI_	61	0	6	96	192	3
STR	61	0	7
SI_	61	0	7	96	192	2
HLD	62	0	3	144
HLD	62	0	4	144
BRK	62	288	0
BRK	62	288	7

T_REC_TAP	148
T_REC_BRK	12
T_REC_XTP	0
T_REC_HLD	21
T_REC_XHO	0
T_REC_STR	17
T_REC_BST	0
T_REC_XST	0
T_REC_TTP	0
T_REC_THO	0
T_REC_SLD	17
T_REC_ALL	215
T_NUM_TAP	165
T_NUM_BRK	12
T_NUM_HLD	21
T_NUM_SLD	17
T_NUM_ALL	215
T_JUDGE_TAP	177
T_JUDGE_HLD	67
T_JUDGE_SLD	17
T_JUDGE_ALL	261
TTM_EACHPAIRS	30
TTM_SCR_TAP	82500
TTM_SCR_BRK	31200
TTM_SCR_HLD	21000
TTM_SCR_SLD	25500
TTM_SCR_ALL	160200
TTM_SCR_S	154250
TTM_SCR_SS	159000
TTM_RAT_ACV	10075

