VERSION	0.00.00	1.03.00
FES_MODE	0
BPM_DEF	140.000	140.000	140.000	140.000
MET_DEF	4	4
RESOLUTION	384
CLK_DEF	384
COMPATIBLE_CODE	MA2

BPM	0	0	140.000
MET	0	0	4	4

TAP	2	288	0
TAP	2	336	7
HLD	3	0	1	96
TAP	3	48	6
TAP	3	96	4
TAP	3	144	5
TAP	3	168	5
TAP	3	288	7
TAP	3	336	0
HLD	4	0	6	96
TAP	4	48	1
TAP	4	96	3
TAP	4	144	2
TAP	4	168	2
TAP	4	336	5
HLD	5	0	1	144
TAP	5	96	2
TAP	5	144	3
HLD	5	192	6	144
TAP	5	288	5
TAP	5	336	4
STR	6	0	2
SI_	6	0	2	96	24	6
STR	6	48	3
SI_	6	48	3	96	24	7
STR	6	192	4
SI_	6	192	4	96	24	0
STR	6	240	5
SI_	6	240	5	96	24	1
TAP	7	0	7
TAP	7	48	6
TAP	7	96	5
TAP	7	144	4
TAP	7	192	0
TAP	7	216	1
HLD	7	264	2	72
TAP	7	336	3
STR	8	0	5
SI_	8	0	5	96	24	1
STR	8	48	4
SI_	8	48	4	96	24	0
STR	8	192	3
SI_	8	192	3	96	24	7
STR	8	240	2
SI_	8	240	2	96	24	6
STR	9	0	7
SCL	9	0	7	96	96	4
STR	9	96	4
SCL	9	96	4	96	96	1
STR	9	192	1
SCL	9	192	1	96	96	6
BRK	9	288	6
HLD	10	0	0	192
TAP	10	144	6
HLD	10	192	6	192
TAP	10	288	3
TAP	10	336	4
HLD	11	0	5	192
TAP	11	144	2
TAP	11	192	2
TAP	11	336	1
HLD	12	0	1	192
TAP	12	144	7
HLD	12	192	7	192
TAP	12	240	6
TAP	12	288	5
TAP	12	336	4
HLD	13	0	3	96
HLD	13	96	2	96
TAP	13	192	0
TAP	13	288	5
TAP	13	336	6
HLD	14	0	7	192
TAP	14	144	1
HLD	14	192	1	192
TAP	14	288	4
TAP	14	336	3
HLD	15	0	2	192
TAP	15	144	5
TAP	15	192	5
TAP	15	336	6
HLD	16	0	6	192
TAP	16	144	0
HLD	16	192	0	192
TAP	16	240	1
TAP	16	288	2
TAP	16	336	3
HLD	17	0	4	96
HLD	17	96	5	96
BRK	17	192	7
TAP	17	288	4
TAP	17	336	2
TAP	18	0	6
STR	18	96	3
SI_	18	96	3	96	24	7
TAP	18	96	4
TAP	18	192	0
TAP	18	288	5
TAP	18	336	6
STR	19	0	1
SCL	19	0	1	96	48	6
TAP	19	96	5
HLD	19	144	5	96
TAP	19	240	6
TAP	19	288	5
TAP	19	336	4
STR	20	0	3
SCL	20	0	3	96	48	0
TAP	20	96	7
HLD	20	144	7	96
TAP	20	240	6
TAP	20	288	4
TAP	20	336	2
TAP	21	0	1
TAP	21	0	3
TAP	21	72	3
TAP	21	72	5
TAP	21	144	0
TAP	21	144	4
TAP	21	192	2
TAP	21	192	6
TAP	21	288	4
TAP	21	336	3
TAP	22	0	0
TAP	22	0	1
TAP	22	72	5
TAP	22	72	6
TAP	22	144	1
TAP	22	144	3
TAP	22	288	3
TAP	22	336	4
TAP	23	0	6
TAP	23	0	7
TAP	23	72	1
TAP	23	72	2
TAP	23	144	4
TAP	23	144	6
TAP	23	288	6
TAP	23	336	6
STR	24	0	5
SI_	24	0	5	96	24	0
TAP	24	96	7
STR	24	192	2
SI_	24	192	2	96	24	7
TAP	24	288	0
STR	25	0	0
SI_	25	0	0	96	24	5
STR	25	96	2
SI_	25	96	2	96	24	7
STR	25	192	4
SI_	25	192	4	96	24	1
STR	25	288	6
SI_	25	288	6	96	24	3
TAP	26	0	2
TAP	26	24	1
TAP	26	48	0
TAP	26	72	7
TAP	26	96	6
TAP	26	120	5
TAP	26	144	4
BRK	26	168	2
BRK	26	168	3
TAP	26	288	4
TAP	26	288	6
TAP	26	336	5
TAP	27	0	1
TAP	27	0	3
TAP	27	48	2
TAP	27	96	1
TAP	27	96	5
TAP	27	144	0
TAP	27	168	7
TAP	27	336	5
STR	28	0	1
SI_	28	0	1	96	24	5
TAP	28	96	7
TAP	28	144	6
STR	28	192	6
SI_	28	192	6	96	24	3
TAP	28	288	0
TAP	28	336	1
TAP	29	0	2
STR	29	48	5
SCL	29	48	5	96	48	2
STR	29	72	1
SCL	29	72	1	96	24	6
TAP	29	288	5
TAP	29	336	6
STR	30	0	7
SI_	30	0	7	96	24	3
TAP	30	96	4
TAP	30	144	2
STR	30	192	1
SI_	30	192	1	96	24	5
TAP	30	288	7
TAP	30	336	6
TAP	31	0	2
TAP	31	48	0
TAP	31	96	6
TAP	31	144	5
HLD	31	168	4	120
HLD	31	168	6	120
TAP	31	336	4
STR	32	0	2
SCL	32	0	2	96	24	7
TAP	32	96	3
TAP	32	144	4
STR	32	192	5
SCR	32	192	5	96	24	0
TAP	32	288	4
TAP	32	336	3
STR	33	0	2
SI_	33	0	2	96	24	6
STR	33	48	5
SI_	33	48	5	96	24	1
STR	33	192	3
SI_	33	192	3	96	24	7
STR	33	240	4
SI_	33	240	4	96	24	0
TAP	34	0	2
TAP	34	48	6
TAP	34	96	1
TAP	34	144	5
STR	34	168	2
SCR	34	168	2	96	24	5
HLD	34	168	6	120
TAP	35	0	1
TAP	35	48	4
TAP	35	96	6
TAP	35	144	2
HLD	35	168	1	120
STR	35	168	5
SCL	35	168	5	96	24	2
TAP	35	336	6
HLD	36	0	4	96
TAP	36	48	3
HLD	36	96	3	96
TAP	36	144	1
TAP	36	192	1
TAP	36	288	0
TAP	36	288	4
TAP	36	336	6
TAP	37	0	1
TAP	37	0	5
TAP	37	48	3
HLD	37	72	2	120
HLD	37	72	6	120
TAP	37	288	4
TAP	37	336	2
STR	38	0	1
SI_	38	0	1	96	24	5
TAP	38	96	0
TAP	38	144	7
STR	38	192	6
SI_	38	192	6	96	24	2
TAP	38	288	0
TAP	38	336	1
TAP	39	0	6
TAP	39	48	7
TAP	39	96	1
TAP	39	144	2
HLD	39	168	1	120
HLD	39	168	3	120
TAP	39	336	4
STR	40	0	4
SI_	40	0	4	96	24	0
TAP	40	96	5
TAP	40	144	6
STR	40	192	3
SI_	40	192	3	96	24	7
TAP	40	288	2
STR	40	336	0
SCL	40	336	0	96	240	5
HLD	40	360	0	312
STR	42	0	5
SI_	42	0	5	96	192	0
STR	43	0	2
SI_	43	0	2	96	192	7
STR	44	0	0
SCR	44	0	0	96	96	3
STR	44	192	4
SCR	44	192	4	96	96	7
STR	45	0	0
SI_	45	0	0	96	192	4
STR	46	0	5
SI_	46	0	5	96	96	1
STR	46	96	1
SCR	46	96	1	96	96	4
STR	46	192	4
SCR	46	192	4	96	96	7
STR	46	288	7
SI_	46	288	7	96	96	3
TAP	47	0	3
STR	47	96	0
SI_	47	96	0	96	24	4
HLD	48	0	0	96
HLD	48	0	5	96
HLD	48	192	2	96
HLD	48	192	7	96
TAP	49	0	2
TAP	49	48	1
TAP	49	96	0
TAP	49	96	2
TAP	49	192	5
TAP	49	240	6
TAP	49	288	5
TAP	49	288	7
TAP	50	0	0
TAP	50	0	6
TAP	50	48	7
TAP	50	96	0
TAP	50	96	6
TAP	50	192	1
TAP	50	192	7
TAP	50	264	0
TAP	50	288	1
TAP	50	288	7
TAP	50	336	0
TAP	50	336	6
TAP	51	0	3
BRK	51	48	6
BRK	51	48	7
TAP	51	96	4
BRK	51	144	0
BRK	51	144	1
TAP	51	192	2
BRK	51	240	6
BRK	51	240	7
TAP	51	288	5
BRK	51	336	0
BRK	51	336	1
TAP	52	0	2
TAP	52	0	3
BRK	52	48	0
BRK	52	48	6
TAP	52	96	4
TAP	52	96	5
BRK	52	144	1
BRK	52	144	7
STR	52	192	3
SI_	52	192	3	96	24	7
STR	52	192	4
SI_	52	192	4	96	24	0
TAP	52	240	3
TAP	52	240	4
TAP	53	0	2
TAP	53	24	1
TAP	53	48	0
TAP	53	72	7
TAP	53	96	6
TAP	53	120	5
TAP	53	144	4
BRK	53	168	2
BRK	53	168	3
TAP	53	288	4
TAP	53	336	2
STR	54	0	6
SI_	54	0	6	96	24	2
TAP	54	48	1
TAP	54	96	0
TAP	54	144	5
HLD	54	168	5	120
TAP	54	288	3
TAP	54	336	2
STR	55	0	1
SI_	55	0	1	96	24	5
TAP	55	48	6
TAP	55	96	7
TAP	55	144	2
HLD	55	168	2	120
TAP	55	336	5
STR	56	0	4
SI_	56	0	4	96	24	1
TAP	56	96	3
TAP	56	144	1
STR	56	192	2
SI_	56	192	2	96	24	6
TAP	56	288	5
TAP	56	336	7
TAP	57	0	1
STR	57	48	1
SI_	57	48	1	96	48	5
STR	57	72	6
SI_	57	72	6	96	24	2
TAP	57	288	5
TAP	57	336	6
STR	58	0	7
SI_	58	0	7	96	24	3
TAP	58	96	4
TAP	58	144	2
STR	58	192	1
SI_	58	192	1	96	24	4
TAP	58	288	5
TAP	58	336	7
TAP	59	0	6
TAP	59	48	1
TAP	59	96	4
TAP	59	144	2
TAP	59	144	6
HLD	59	168	1	120
HLD	59	168	5	120
TAP	59	336	4
STR	60	0	1
SCR	60	0	1	96	24	4
TAP	60	96	1
TAP	60	144	0
STR	60	192	7
SCL	60	192	7	96	24	4
TAP	60	288	7
TAP	60	336	0
STR	61	0	2
SI_	61	0	2	96	24	6
STR	61	48	5
SI_	61	48	5	96	24	1
STR	61	192	4
SI_	61	192	4	96	24	0
STR	61	240	3
SI_	61	240	3	96	24	7
TAP	62	0	1
TAP	62	0	5
TAP	62	48	6
TAP	62	96	0
TAP	62	96	4
TAP	62	144	1
STR	62	168	3
SI_	62	168	3	96	24	7
STR	62	168	5
SI_	62	168	5	96	24	1
TAP	63	0	2
TAP	63	0	6
TAP	63	48	0
TAP	63	96	1
TAP	63	96	5
TAP	63	144	6
STR	63	168	2
SI_	63	168	2	96	24	6
STR	63	168	4
SI_	63	168	4	96	24	0
TAP	63	336	1
HLD	64	0	3	96
TAP	64	48	4
HLD	64	96	4	96
TAP	64	144	6
TAP	64	192	6
TAP	64	288	5
TAP	64	288	6
TAP	64	336	2
TAP	64	336	3
TAP	65	0	5
TAP	65	0	6
TAP	65	48	2
TAP	65	48	3
STR	65	72	2
SI_	65	72	2	96	24	5
STR	65	72	3
SI_	65	72	3	96	24	6
TAP	65	288	6
TAP	65	336	7
STR	66	0	1
SCL	66	0	1	96	24	6
STR	66	48	5
SI_	66	48	5	96	24	1
STR	66	192	6
SCR	66	192	6	96	24	1
STR	66	240	2
SI_	66	240	2	96	24	6
TAP	67	0	0
TAP	67	48	7
TAP	67	96	3
TAP	67	144	1
TAP	67	144	5
HLD	67	168	0	120
HLD	67	168	4	120
TAP	67	336	4
STR	68	0	6
SCL	68	0	6	96	24	3
TAP	68	96	2
TAP	68	144	1
STR	68	192	0
SCR	68	192	0	96	24	3
TAP	68	288	5
TAP	68	336	7
TAP	69	0	3
BRK	69	48	6
BRK	69	48	7
TAP	69	96	4
BRK	69	144	0
BRK	69	144	1
TAP	69	192	2
TAP	69	192	3
BRK	69	240	0
BRK	69	240	6
TAP	69	288	4
TAP	69	288	5
BRK	69	336	1
BRK	69	336	7
TAP	70	0	0
TAP	70	48	4
TAP	70	96	2
TAP	70	144	6
HLD	70	168	0	120
TAP	70	288	2
HLD	71	0	7	96
TAP	71	96	5
HLD	71	192	0	96
TAP	71	288	2
HLD	72	0	6	96
TAP	72	48	5
TAP	72	96	3
HLD	72	192	1	96
TAP	72	240	2
TAP	72	288	4
STR	73	0	2
SI_	73	0	2	96	24	6
STR	73	48	5
SI_	73	48	5	96	24	1
STR	73	192	5
SI_	73	192	5	96	24	1
STR	73	240	2
SI_	73	240	2	96	24	6
TAP	74	0	7
TAP	74	48	3
TAP	74	96	5
TAP	74	144	1
HLD	74	168	7	120
TAP	74	288	5
HLD	75	0	0	96
TAP	75	96	2
HLD	75	192	7	96
TAP	75	288	5
HLD	76	0	1	96
TAP	76	48	2
TAP	76	96	4
HLD	76	192	6	96
TAP	76	240	5
TAP	76	288	3
TAP	77	0	3
TAP	77	48	2
TAP	77	48	5
TAP	77	96	4
TAP	77	144	3
TAP	77	144	7
TAP	77	192	1
TAP	77	192	4
TAP	77	240	0
TAP	77	240	5
TAP	77	288	3
TAP	77	336	2
TAP	77	336	7
TAP	78	48	4
TAP	78	96	1
TAP	78	96	5
BRK	79	120	0

T_REC_TAP	310
T_REC_BRK	27
T_REC_XTP	0
T_REC_HLD	54
T_REC_XHO	0
T_REC_STR	81
T_REC_BST	0
T_REC_XST	0
T_REC_TTP	0
T_REC_THO	0
T_REC_SLD	81
T_REC_ALL	553
T_NUM_TAP	391
T_NUM_BRK	27
T_NUM_HLD	54
T_NUM_SLD	81
T_NUM_ALL	553
T_JUDGE_TAP	418
T_JUDGE_HLD	151
T_JUDGE_SLD	81
T_JUDGE_ALL	650
TTM_EACHPAIRS	69
TTM_SCR_TAP	195500
TTM_SCR_BRK	70200
TTM_SCR_HLD	54000
TTM_SCR_SLD	121500
TTM_SCR_ALL	441200
TTM_SCR_S	425350
TTM_SCR_SS	438500
TTM_RAT_ACV	10061

