VERSION	0.00.00	1.03.00
FES_MODE	0
BPM_DEF	140.000	140.000	140.000	140.000
MET_DEF	4	4
RESOLUTION	384
CLK_DEF	384
COMPATIBLE_CODE	MA2

BPM	0	0	140.000
MET	0	0	4	4

TAP	3	0	0
STR	3	96	1
SCR	3	96	1	96	96	4
TAP	4	0	7
STR	4	96	6
SCL	4	96	6	96	96	3
TAP	5	0	0
STR	5	96	1
SCR	5	96	1	96	96	4
TAP	6	0	3
TAP	6	96	2
TAP	6	192	1
TAP	6	288	0
HLD	7	0	2	96
TAP	7	96	3
HLD	7	192	0	96
TAP	7	288	1
TAP	8	0	4
TAP	8	96	5
TAP	8	192	6
TAP	8	288	7
HLD	9	0	5	96
TAP	9	96	4
HLD	9	192	7	96
BRK	9	288	6
HLD	10	0	2	192
TAP	10	192	3
TAP	10	288	3
HLD	11	0	5	192
TAP	11	192	4
TAP	11	288	4
HLD	12	0	2	192
TAP	12	192	1
TAP	12	288	3
HLD	13	0	5	144
TAP	13	144	6
TAP	13	192	6
HLD	14	0	1	144
TAP	14	144	2
TAP	14	192	2
TAP	14	288	3
HLD	15	0	6	144
TAP	15	144	5
TAP	15	192	5
TAP	15	288	4
HLD	16	0	1	144
TAP	16	144	0
TAP	16	192	0
TAP	16	288	2
HLD	17	0	6	192
BRK	17	192	7
STR	18	0	2
SCR	18	0	2	96	96	5
TAP	18	192	7
TAP	18	288	6
STR	19	0	5
SCL	19	0	5	96	96	2
TAP	19	192	0
TAP	19	288	1
STR	20	0	2
SCR	20	0	2	96	96	5
TAP	20	192	7
TAP	20	288	6
TAP	21	0	3
TAP	21	0	4
TAP	21	72	1
TAP	21	72	6
TAP	21	144	0
TAP	21	192	7
TAP	21	288	0
TAP	21	288	7
TAP	22	0	0
TAP	22	72	1
HLD	22	144	2	144
TAP	22	288	3
TAP	23	0	7
TAP	23	72	6
HLD	23	144	5	144
TAP	23	288	4
STR	24	0	0
SI_	24	0	0	96	96	4
STR	24	192	7
SI_	24	192	7	96	96	3
TAP	25	0	0
TAP	25	96	6
TAP	25	96	7
TAP	25	192	0
TAP	25	192	1
TAP	25	288	2
TAP	25	288	6
STR	26	0	1
SCR	26	0	1	96	96	4
STR	26	0	5
SCR	26	0	5	96	96	0
TAP	26	288	1
TAP	26	336	0
TAP	27	0	7
STR	27	96	5
SCL	27	96	5	96	96	2
TAP	27	336	6
TAP	28	0	6
TAP	28	96	1
TAP	28	144	2
STR	28	192	3
SI_	28	192	3	96	96	0
STR	29	0	7
SI_	29	0	7	96	96	4
TAP	29	288	0
TAP	29	336	1
TAP	30	0	2
TAP	30	96	6
TAP	30	144	5
TAP	30	192	4
TAP	30	288	1
TAP	30	336	2
TAP	31	0	3
TAP	31	96	6
TAP	31	96	7
TAP	31	192	4
TAP	31	192	5
TAP	31	336	2
HLD	32	0	2	96
HLD	32	96	3	96
HLD	32	192	4	96
TAP	32	288	5
TAP	33	0	2
TAP	33	0	3
TAP	33	96	5
TAP	33	96	6
TAP	33	192	0
TAP	33	192	1
TAP	33	288	1
TAP	33	288	5
STR	34	0	2
SCL	34	0	2	96	96	7
STR	34	0	6
SCL	34	0	6	96	96	3
TAP	34	288	6
TAP	34	336	7
TAP	35	0	0
STR	35	96	2
SCR	35	96	2	96	96	5
TAP	35	336	1
TAP	36	0	1
TAP	36	96	6
TAP	36	144	5
STR	36	192	4
SI_	36	192	4	96	96	7
STR	37	0	0
SI_	37	0	0	96	96	3
TAP	37	288	7
TAP	37	336	6
TAP	38	0	5
TAP	38	96	1
TAP	38	144	2
TAP	38	192	3
TAP	38	288	6
TAP	38	336	5
TAP	39	0	4
TAP	39	96	0
TAP	39	96	1
TAP	39	192	2
TAP	39	192	3
TAP	39	336	5
HLD	40	0	5	96
HLD	40	96	4	96
HLD	40	192	3	96
STR	40	288	2
SCR	40	288	2	96	96	5
TAP	41	288	7
TAP	41	336	6
STR	42	0	5
SCL	42	0	5	96	96	2
TAP	42	288	0
TAP	42	336	1
STR	43	0	2
SCR	43	0	2	96	96	5
STR	44	0	6
SCL	44	0	6	96	96	3
STR	44	192	1
SCR	44	192	1	96	96	4
STR	45	0	7
SI_	45	0	7	96	192	4
HLD	46	0	5	192
HLD	46	192	4	192
TAP	47	0	3
STR	47	96	2
SCR	47	96	2	96	96	5
HLD	48	0	1	288
HLD	48	192	6	96
TAP	49	0	6
TAP	49	48	6
TAP	49	96	6
TAP	49	96	7
TAP	49	192	1
TAP	49	240	1
TAP	49	288	0
TAP	49	288	1
TAP	50	0	6
TAP	50	48	7
TAP	50	96	6
TAP	50	96	7
TAP	50	192	1
TAP	50	240	0
TAP	50	288	0
TAP	50	288	1
TAP	51	0	6
TAP	51	0	7
TAP	51	96	0
TAP	51	96	1
TAP	51	192	5
TAP	51	192	7
TAP	51	288	0
TAP	51	288	2
TAP	52	0	0
TAP	52	0	5
TAP	52	96	2
TAP	52	96	7
TAP	52	192	1
TAP	52	192	6
TAP	52	240	1
TAP	52	240	6
BRK	52	288	0
BRK	52	288	7
STR	53	0	2
SCL	53	0	2	96	96	7
STR	53	0	6
SCL	53	0	6	96	96	3
TAP	53	288	1
TAP	53	288	5
TAP	53	336	2
TAP	53	336	6
STR	54	0	1
SCR	54	0	1	96	96	4
STR	54	0	5
SCR	54	0	5	96	96	0
TAP	54	288	1
TAP	54	336	0
TAP	55	0	7
TAP	55	48	6
STR	55	96	5
SCL	55	96	5	96	96	2
TAP	55	336	6
TAP	56	0	7
TAP	56	48	0
TAP	56	96	1
TAP	56	144	2
STR	56	192	3
SCR	56	192	3	96	96	6
STR	57	0	7
SCR	57	0	7	96	96	2
TAP	57	288	0
TAP	57	336	1
HLD	58	0	2	96
TAP	58	96	6
TAP	58	144	5
TAP	58	192	4
TAP	58	288	1
TAP	58	336	1
TAP	59	0	3
TAP	59	48	3
TAP	59	96	5
TAP	59	144	5
STR	59	168	4
SI_	59	168	4	96	48	7
TAP	59	336	1
HLD	60	0	1	96
HLD	60	96	0	96
HLD	60	192	7	96
TAP	60	288	6
STR	61	0	4
SI_	61	0	4	96	48	0
STR	61	96	3
SI_	61	96	3	96	48	7
TAP	61	288	2
TAP	61	288	6
TAP	61	336	1
TAP	61	336	5
STR	62	0	2
SCL	62	0	2	96	96	7
STR	62	0	6
SCL	62	0	6	96	96	3
TAP	62	288	6
TAP	62	336	7
TAP	63	0	0
TAP	63	48	1
STR	63	96	2
SCR	63	96	2	96	96	5
TAP	63	336	1
TAP	64	0	0
TAP	64	48	7
TAP	64	96	6
TAP	64	144	5
STR	64	192	4
SCL	64	192	4	96	96	1
STR	65	0	0
SCL	65	0	0	96	96	5
TAP	65	288	7
TAP	65	336	6
HLD	66	0	5	96
TAP	66	96	1
TAP	66	144	2
TAP	66	192	3
TAP	66	288	6
TAP	66	336	6
TAP	67	0	4
TAP	67	48	4
TAP	67	96	2
TAP	67	144	2
STR	67	168	3
SI_	67	168	3	96	48	0
TAP	67	336	6
HLD	68	0	6	96
HLD	68	96	7	96
HLD	68	192	0	96
TAP	68	288	1
STR	69	0	3
SI_	69	0	3	96	48	7
STR	69	96	4
SI_	69	96	4	96	48	0
TAP	69	288	1
TAP	69	288	5
TAP	69	336	2
TAP	69	336	6
STR	70	0	1
SCR	70	0	1	96	96	4
STR	70	0	5
SI_	70	0	5	96	96	0
HLD	70	288	1	192
TAP	71	0	2
HLD	71	96	6	192
TAP	71	192	5
HLD	71	288	1	192
TAP	72	0	3
HLD	72	96	6	192
TAP	72	192	4
TAP	72	288	1
STR	73	0	3
SI_	73	0	3	96	48	7
STR	73	96	4
SI_	73	96	4	96	48	0
TAP	73	288	2
TAP	73	288	6
TAP	73	336	1
TAP	73	336	5
STR	74	0	2
SI_	74	0	2	96	96	7
STR	74	0	6
SCL	74	0	6	96	96	3
HLD	74	288	0	192
TAP	75	0	1
HLD	75	96	7	192
TAP	75	192	6
HLD	75	288	3	192
TAP	76	0	2
HLD	76	96	4	192
TAP	76	192	5
TAP	76	288	3
TAP	77	0	2
TAP	77	0	5
TAP	77	96	1
TAP	77	96	6
STR	77	192	0
SCL	77	192	0	96	96	5
STR	77	192	7
SCR	77	192	7	96	96	2
BRK	78	96	1
BRK	78	96	6

T_REC_TAP	220
T_REC_BRK	6
T_REC_XTP	0
T_REC_HLD	40
T_REC_XHO	0
T_REC_STR	51
T_REC_BST	0
T_REC_XST	0
T_REC_TTP	0
T_REC_THO	0
T_REC_SLD	51
T_REC_ALL	368
T_NUM_TAP	271
T_NUM_BRK	6
T_NUM_HLD	40
T_NUM_SLD	51
T_NUM_ALL	368
T_JUDGE_TAP	277
T_JUDGE_HLD	118
T_JUDGE_SLD	51
T_JUDGE_ALL	446
TTM_EACHPAIRS	46
TTM_SCR_TAP	135500
TTM_SCR_BRK	15600
TTM_SCR_HLD	40000
TTM_SCR_SLD	76500
TTM_SCR_ALL	267600
TTM_SCR_S	259000
TTM_SCR_SS	267000
TTM_RAT_ACV	10022

