VERSION	0.00.00	1.03.00
FES_MODE	0
BPM_DEF	140.000	140.000	140.000	140.000
MET_DEF	4	4
RESOLUTION	384
CLK_DEF	384
COMPATIBLE_CODE	MA2

BPM	0	0	140.000
MET	0	0	4	4

HLD	3	0	1	192
HLD	3	192	7	192
HLD	4	0	0	192
HLD	4	192	6	192
STR	5	0	0
SI_	5	0	0	96	192	4
TAP	6	0	1
TAP	6	96	1
TAP	6	192	7
TAP	6	288	7
TAP	7	0	0
TAP	7	96	0
HLD	7	192	6	96
TAP	8	0	6
TAP	8	96	6
TAP	8	192	0
TAP	8	288	0
TAP	9	0	7
TAP	9	96	7
HLD	9	192	0	96
TAP	10	0	1
TAP	10	192	0
TAP	10	288	1
TAP	11	0	2
TAP	11	192	3
TAP	11	288	2
TAP	12	0	4
TAP	12	192	5
TAP	12	288	4
TAP	13	0	6
BRK	13	192	6
BRK	13	192	7
HLD	14	0	0	96
TAP	14	192	7
TAP	14	288	6
HLD	15	0	7	96
TAP	15	192	0
TAP	15	288	1
HLD	16	0	0	96
TAP	16	192	0
TAP	16	288	7
TAP	17	0	0
TAP	17	96	7
BRK	17	192	0
BRK	17	192	7
TAP	18	0	0
TAP	18	96	0
TAP	18	192	0
TAP	19	0	2
TAP	19	96	2
TAP	19	192	2
TAP	20	0	4
TAP	20	96	4
TAP	20	192	4
TAP	20	288	4
TAP	21	0	6
TAP	21	96	6
TAP	21	192	6
HLD	22	0	6	144
HLD	22	0	7	144
HLD	23	0	0	144
HLD	23	0	1	144
STR	23	288	1
SI_	23	288	1	96	144	5
TAP	25	0	0
TAP	25	0	7
TAP	25	96	0
TAP	25	96	7
BRK	25	192	1
BRK	25	192	6
BRK	25	288	0
BRK	25	288	7
TAP	26	0	1
TAP	26	96	0
TAP	26	192	6
TAP	26	192	7
TAP	27	0	6
TAP	27	96	7
TAP	27	192	0
TAP	27	192	1
TAP	28	0	2
TAP	28	96	3
TAP	28	192	4
TAP	28	288	5
TAP	29	0	6
TAP	29	96	7
TAP	29	192	0
TAP	30	0	0
TAP	30	96	7
HLD	30	192	6	96
TAP	30	288	5
TAP	31	0	7
TAP	31	96	0
HLD	31	192	1	96
TAP	31	288	2
TAP	32	0	0
TAP	32	96	0
STR	32	192	7
SI_	32	192	7	96	72	3
TAP	33	0	0
TAP	33	96	2
TAP	33	192	4
BRK	33	288	6
TAP	34	0	0
TAP	34	0	7
TAP	34	96	1
TAP	34	96	7
TAP	34	192	2
TAP	34	192	7
TAP	35	0	2
TAP	35	0	7
TAP	35	96	2
TAP	35	96	6
TAP	35	192	2
TAP	35	192	5
TAP	36	0	3
TAP	36	0	4
TAP	36	96	2
TAP	36	96	5
TAP	36	192	1
TAP	36	192	6
TAP	36	288	0
TAP	36	288	7
TAP	37	0	0
TAP	37	0	7
TAP	37	96	1
TAP	37	96	6
TAP	37	192	2
TAP	37	192	5
BRK	37	288	3
BRK	37	288	4
TAP	38	0	2
TAP	38	96	3
TAP	38	192	4
TAP	38	288	5
TAP	39	0	6
TAP	39	0	7
TAP	39	96	0
TAP	39	96	7
TAP	39	192	0
TAP	39	192	1
TAP	40	0	7
TAP	40	96	5
TAP	40	192	3
TAP	40	288	1
HLD	41	0	7	192
HLD	42	0	0	192
HLD	43	0	6	192
HLD	44	0	4	96
HLD	44	192	2	96
HLD	45	0	3	192
STR	46	0	0
SI_	46	0	0	96	192	3
STR	47	0	7
SI_	47	0	7	96	192	4
HLD	48	0	1	96
HLD	48	192	0	96
TAP	49	0	5
TAP	49	96	5
TAP	49	192	6
TAP	49	288	6
TAP	50	0	7
TAP	50	96	7
TAP	50	192	0
TAP	50	288	0
TAP	51	0	1
TAP	51	96	1
TAP	51	192	2
TAP	51	288	2
TAP	52	0	1
TAP	52	96	1
STR	52	192	1
SI_	52	192	1	96	72	5
TAP	54	0	7
STR	54	96	7
SI_	54	96	7	96	72	3
TAP	55	0	0
STR	55	96	0
SI_	55	96	0	96	72	4
STR	56	0	7
SI_	56	0	7	96	72	4
STR	56	192	0
SI_	56	192	0	96	72	3
TAP	57	0	5
TAP	57	96	6
BRK	57	192	7
TAP	58	0	0
STR	58	96	1
SI_	58	96	1	96	72	5
TAP	59	0	7
STR	59	96	6
SI_	59	96	6	96	72	2
TAP	60	0	1
TAP	60	96	0
HLD	60	192	7	96
TAP	61	0	7
TAP	61	96	5
TAP	61	192	3
BRK	61	288	1
TAP	62	0	1
STR	62	96	0
SI_	62	96	0	96	72	3
TAP	63	0	6
STR	63	96	7
SI_	63	96	7	96	72	4
STR	64	0	0
SI_	64	0	0	96	72	4
STR	64	192	7
SI_	64	192	7	96	72	3
TAP	65	0	2
TAP	65	96	1
BRK	65	192	0
TAP	66	0	0
TAP	66	0	7
STR	66	96	0
SI_	66	96	0	96	72	3
STR	66	96	7
SI_	66	96	7	96	72	4
TAP	67	0	3
TAP	67	0	4
TAP	67	96	2
TAP	67	96	5
BRK	67	192	0
BRK	67	192	7
HLD	68	0	0	96
HLD	68	0	1	96
HLD	68	192	6	96
HLD	68	192	7	96
TAP	69	0	0
TAP	69	0	1
TAP	69	96	0
TAP	69	96	1
TAP	69	192	6
TAP	69	192	7
BRK	69	288	6
BRK	69	288	7
TAP	70	0	0
TAP	70	96	1
HLD	70	192	0	96
TAP	71	0	7
TAP	71	96	6
HLD	71	192	7	96
TAP	72	0	0
TAP	72	96	0
TAP	72	192	7
TAP	72	288	7
TAP	73	0	0
TAP	73	96	2
TAP	73	192	4
BRK	73	288	6
TAP	74	0	5
TAP	74	96	4
HLD	74	192	5	96
TAP	75	0	2
TAP	75	96	3
HLD	75	192	2	96
HLD	76	0	7	96
HLD	76	192	0	96
TAP	77	0	1
TAP	77	96	0
TAP	77	192	7
TAP	77	288	6
HLD	78	96	0	288
HLD	78	96	7	288

T_REC_TAP	173
T_REC_BRK	19
T_REC_XTP	0
T_REC_HLD	36
T_REC_XHO	0
T_REC_STR	18
T_REC_BST	0
T_REC_XST	0
T_REC_TTP	0
T_REC_THO	0
T_REC_SLD	18
T_REC_ALL	264
T_NUM_TAP	191
T_NUM_BRK	19
T_NUM_HLD	36
T_NUM_SLD	18
T_NUM_ALL	264
T_JUDGE_TAP	210
T_JUDGE_HLD	100
T_JUDGE_SLD	18
T_JUDGE_ALL	328
TTM_EACHPAIRS	39
TTM_SCR_TAP	95500
TTM_SCR_BRK	49400
TTM_SCR_HLD	36000
TTM_SCR_SLD	27000
TTM_SCR_ALL	207900
TTM_SCR_S	199850
TTM_SCR_SS	206000
TTM_RAT_ACV	10092

