VERSION	0.00.00	1.03.00
FES_MODE	0
BPM_DEF	140.000	140.000	140.000	140.000
MET_DEF	4	4
RESOLUTION	384
CLK_DEF	384
COMPATIBLE_CODE	MA2

BPM	0	0	140.000
MET	0	0	4	4

STR	3	0	7
SI_	3	0	7	96	192	4
STR	4	0	0
SI_	4	0	0	96	192	3
TAP	5	0	2
TAP	5	0	5
TAP	5	192	1
TAP	5	192	6
BRK	6	0	0
BRK	6	0	7
TAP	8	0	0
TAP	8	96	0
TAP	8	192	0
TAP	8	288	0
HLD	10	0	7	192
HLD	11	0	6	192
HLD	12	0	0	192
HLD	13	0	1	96
BRK	13	192	1
HLD	14	0	2	192
HLD	15	0	3	192
HLD	16	0	4	192
HLD	17	0	5	96
BRK	17	192	5
STR	18	0	6
SI_	18	0	6	96	192	1
STR	19	0	2
SI_	19	0	2	96	192	5
STR	20	0	7
SI_	20	0	7	96	192	4
STR	21	0	0
SI_	21	0	0	96	192	3
HLD	22	0	0	144
HLD	22	0	7	144
HLD	23	0	0	144
HLD	23	0	7	144
STR	23	288	0
SI_	23	288	0	96	288	3
STR	23	288	7
SI_	23	288	7	96	288	4
BRK	25	192	0
TAP	26	0	7
TAP	26	96	7
TAP	26	192	7
TAP	27	0	6
TAP	27	96	6
TAP	27	192	6
TAP	28	0	5
TAP	28	192	4
TAP	29	0	3
TAP	29	192	2
TAP	29	288	2
TAP	30	0	1
TAP	30	96	1
TAP	30	192	1
TAP	31	0	0
TAP	31	96	0
TAP	31	192	0
TAP	32	0	7
TAP	32	192	7
STR	32	288	7
SI_	32	288	7	96	192	3
TAP	34	0	0
TAP	34	96	0
TAP	34	192	0
TAP	34	192	7
TAP	35	0	1
TAP	35	96	1
TAP	35	192	1
TAP	35	192	2
TAP	36	0	2
TAP	36	192	3
TAP	37	0	4
TAP	37	192	5
TAP	37	288	5
TAP	38	0	6
TAP	38	96	6
TAP	38	192	6
TAP	38	192	7
TAP	39	0	7
TAP	39	96	7
TAP	39	192	0
TAP	39	192	7
TAP	40	0	0
TAP	40	192	0
STR	40	288	0
SI_	40	288	0	96	192	4
HLD	42	0	7	192
HLD	43	0	6	192
HLD	44	0	5	192
HLD	45	0	4	192
HLD	46	0	3	192
HLD	47	0	2	192
HLD	48	0	1	192
BRK	49	0	0
TAP	49	192	0
TAP	50	0	0
TAP	50	192	0
TAP	51	0	7
TAP	51	96	7
TAP	51	192	6
TAP	51	288	6
TAP	52	0	7
TAP	52	96	7
TAP	52	192	0
BRK	52	288	0
HLD	53	0	0	192
HLD	53	0	7	192
TAP	54	0	1
TAP	54	96	0
TAP	54	192	1
TAP	55	0	6
TAP	55	96	7
TAP	55	192	6
TAP	56	0	6
TAP	56	192	7
TAP	57	0	0
TAP	57	192	1
TAP	57	288	1
TAP	58	0	2
TAP	58	96	3
TAP	58	192	2
TAP	59	0	5
TAP	59	96	4
TAP	59	192	5
TAP	60	0	5
TAP	60	192	4
TAP	61	0	3
TAP	61	192	2
TAP	62	0	1
TAP	62	96	0
TAP	62	192	0
TAP	62	192	1
TAP	63	0	6
TAP	63	96	7
TAP	63	192	6
TAP	63	192	7
HLD	64	0	0	192
HLD	65	0	7	192
TAP	66	0	1
TAP	66	0	6
TAP	66	192	1
TAP	66	192	6
TAP	67	0	0
TAP	67	0	7
TAP	67	96	0
TAP	67	96	7
TAP	67	192	0
TAP	67	192	7
TAP	68	0	0
TAP	68	192	7
HLD	69	0	0	192
STR	70	0	0
SI_	70	0	0	96	192	3
STR	71	0	7
SI_	71	0	7	96	192	4
STR	72	0	1
SI_	72	0	1	96	192	6
STR	73	0	5
SI_	73	0	5	96	192	2
HLD	74	0	1	192
HLD	75	0	0	192
HLD	76	0	7	192
HLD	77	0	6	288
BRK	78	96	0
BRK	78	96	7

T_REC_TAP	101
T_REC_BRK	9
T_REC_XTP	0
T_REC_HLD	28
T_REC_XHO	0
T_REC_STR	14
T_REC_BST	0
T_REC_XST	0
T_REC_TTP	0
T_REC_THO	0
T_REC_SLD	14
T_REC_ALL	166
T_NUM_TAP	115
T_NUM_BRK	9
T_NUM_HLD	28
T_NUM_SLD	14
T_NUM_ALL	166
T_JUDGE_TAP	124
T_JUDGE_HLD	106
T_JUDGE_SLD	14
T_JUDGE_ALL	244
TTM_EACHPAIRS	19
TTM_SCR_TAP	57500
TTM_SCR_BRK	23400
TTM_SCR_HLD	28000
TTM_SCR_SLD	21000
TTM_SCR_ALL	129900
TTM_SCR_S	125150
TTM_SCR_SS	129000
TTM_RAT_ACV	10069

