VERSION	0.00.00	1.03.00
FES_MODE	0
BPM_DEF	168.000	168.000	168.000	168.000
MET_DEF	4	4
RESOLUTION	384
CLK_DEF	384
COMPATIBLE_CODE	MA2

BPM	0	0	168.000
MET	0	0	4	4

TAP	2	48	1
TAP	2	72	0
TAP	2	96	1
TAP	2	120	0
TAP	2	144	1
TAP	2	192	4
TAP	2	264	5
STR	2	336	0
SCL	2	336	0	96	48	5
STR	3	0	5
SCL	3	0	5	96	48	2
HLD	3	144	7	96
TAP	3	240	2
TAP	3	288	1
TAP	3	336	0
TAP	4	48	7
TAP	4	72	6
TAP	4	96	7
TAP	4	120	6
TAP	4	144	7
TAP	4	192	3
TAP	4	264	2
STR	4	336	7
SCR	4	336	7	96	48	2
STR	5	0	2
SCR	5	0	2	96	48	5
HLD	5	144	0	96
TAP	5	240	6
TAP	5	288	5
TAP	5	336	4
TAP	6	48	4
TAP	6	72	5
TAP	6	96	4
TAP	6	120	5
TAP	6	144	4
TAP	6	192	0
TAP	6	264	1
STR	6	336	2
SCL	6	336	2	96	48	7
STR	7	0	7
SCL	7	0	7	96	48	4
HLD	7	144	1	96
TAP	7	240	3
TAP	7	288	4
TAP	7	336	5
TAP	8	48	2
TAP	8	72	3
TAP	8	96	2
TAP	8	120	3
TAP	8	144	2
TAP	8	192	6
TAP	8	264	7
STR	8	336	1
SI_	8	336	1	96	48	4
TAP	9	0	1
STR	9	96	6
SI_	9	96	6	96	48	3
TAP	9	144	6
STR	9	240	0
SI_	9	240	0	96	48	5
TAP	9	288	0
STR	10	0	7
SI_	10	0	7	96	48	2
TAP	10	48	7
TAP	10	144	0
TAP	10	192	4
TAP	10	240	5
TAP	10	288	6
TAP	10	336	7
HLD	11	0	0	96
TAP	11	96	1
HLD	11	144	0	96
TAP	11	240	7
TAP	11	288	7
HLD	12	0	6	96
TAP	12	96	7
HLD	12	144	6	96
TAP	12	240	5
TAP	12	288	5
HLD	13	0	4	96
TAP	13	96	5
HLD	13	144	4	96
TAP	13	240	3
TAP	13	288	3
TAP	13	336	2
BRK	14	48	1
BRK	14	96	0
BRK	14	144	7
TAP	14	240	6
TAP	14	288	7
TAP	14	336	0
HLD	15	0	1	96
TAP	15	96	0
HLD	15	144	5	96
TAP	15	240	4
TAP	15	288	4
HLD	16	0	7	96
TAP	16	96	6
HLD	16	144	3	96
TAP	16	240	2
TAP	16	288	2
TAP	17	0	1
TAP	17	48	6
TAP	17	96	2
TAP	17	144	7
HLD	17	192	3	72
HLD	17	264	2	72
TAP	17	336	1
TAP	18	48	4
TAP	18	96	4
TAP	18	144	4
TAP	18	192	5
TAP	18	240	4
TAP	18	336	1
STR	19	0	0
SI_	19	0	0	96	48	4
TAP	19	96	6
HLD	19	144	6	96
TAP	19	240	4
TAP	19	288	4
TAP	19	288	5
STR	20	0	7
SI_	20	0	7	96	48	3
TAP	20	96	1
HLD	20	144	1	96
TAP	20	240	3
TAP	20	288	2
TAP	20	288	3
STR	21	0	2
SI_	21	0	2	96	48	6
TAP	21	96	4
HLD	21	144	4	96
TAP	21	240	6
TAP	21	288	6
TAP	21	336	0
BRK	22	48	0
BRK	22	48	1
BRK	22	96	0
BRK	22	96	7
BRK	22	144	6
BRK	22	144	7
TAP	22	240	5
TAP	22	288	4
TAP	22	336	3
STR	23	0	2
SCL	23	0	2	96	48	7
TAP	23	96	6
STR	23	144	6
SCL	23	144	6	96	48	3
TAP	23	240	2
TAP	23	288	2
STR	24	0	5
SCR	24	0	5	96	48	0
TAP	24	96	1
STR	24	144	1
SCR	24	144	1	96	48	4
TAP	24	240	5
TAP	24	288	5
TAP	25	0	4
TAP	25	48	3
TAP	25	96	2
TAP	25	144	1
TAP	25	192	0
TAP	25	192	7
TAP	25	240	1
TAP	25	240	6
TAP	25	336	2
TAP	25	336	5
STR	26	24	3
SI_	26	24	3	96	48	0
STR	26	24	4
SI_	26	24	4	96	48	7
TAP	26	72	3
TAP	26	72	4
STR	26	288	0
SCL	26	288	0	96	288	5
HLD	27	0	0	192
TAP	27	288	0
TAP	27	336	0
BRK	28	0	0
TAP	28	0	4
TAP	28	72	3
BRK	28	72	7
TAP	28	144	2
BRK	28	144	6
TAP	28	240	1
TAP	28	288	2
TAP	28	336	3
TAP	29	0	0
TAP	29	0	4
TAP	29	48	1
TAP	29	48	5
TAP	29	96	2
TAP	29	96	6
TAP	29	144	3
TAP	29	144	7
HLD	29	192	0	72
HLD	29	264	2	72
HLD	29	336	3	192
BRK	30	48	5
BRK	30	96	6
BRK	30	144	7
TAP	30	288	2
TAP	30	336	3
TAP	31	0	4
TAP	31	0	5
TAP	31	72	4
TAP	31	96	5
STR	31	144	3
SI_	31	144	3	96	48	7
STR	31	144	6
SI_	31	144	6	96	48	2
TAP	32	0	2
TAP	32	0	3
TAP	32	72	2
TAP	32	96	3
STR	32	144	1
SI_	32	144	1	96	48	5
STR	32	144	4
SI_	32	144	4	96	48	0
TAP	33	0	0
TAP	33	0	7
TAP	33	72	0
TAP	33	96	7
STR	33	144	1
SI_	33	144	1	96	48	5
STR	33	144	6
SI_	33	144	6	96	48	2
STR	34	0	4
SI_	34	0	4	96	48	0
STR	34	144	3
SI_	34	144	3	96	48	7
TAP	34	288	0
HLD	35	0	5	672
HLD	35	0	7	96
HLD	35	144	3	96
HLD	35	288	6	96
HLD	36	48	1	96
BRK	36	192	4
BRK	36	288	7
HLD	37	0	0	48
HLD	37	48	1	48
HLD	37	96	2	48
HLD	37	144	3	48
HLD	37	192	4	48
HLD	37	240	5	48
HLD	37	288	6	48
TAP	37	336	7
BRK	38	0	0
BRK	38	0	1
BRK	38	48	3
BRK	38	48	4
BRK	38	144	6
BRK	38	144	7
TAP	38	240	3
TAP	38	288	2
STR	38	336	1
SI_	38	336	1	96	48	5
TAP	38	360	0
TAP	39	0	1
BRK	39	144	7
BRK	39	240	7
STR	39	336	6
SI_	39	336	6	96	48	2
TAP	39	360	7
TAP	40	0	6
BRK	40	144	0
BRK	40	240	0
TAP	40	336	1
TAP	40	360	7
HLD	41	0	1	144
TAP	41	96	3
HLD	41	144	3	96
HLD	41	240	4	96
TAP	41	336	6
TAP	42	0	4
TAP	42	48	3
TAP	42	96	2
TAP	42	144	1
TAP	42	192	0
TAP	42	240	7
STR	42	336	6
SI_	42	336	6	96	48	3
TAP	42	360	7
TAP	43	0	6
BRK	43	144	0
BRK	43	240	0
STR	43	336	1
SI_	43	336	1	96	48	4
TAP	43	360	0
TAP	44	0	1
BRK	44	144	7
BRK	44	240	7
TAP	44	336	6
TAP	44	360	0
HLD	45	0	6	144
TAP	45	96	4
HLD	45	144	4	96
HLD	45	240	3	96
TAP	45	336	1
TAP	46	0	3
TAP	46	48	2
TAP	46	72	3
TAP	46	96	2
TAP	46	144	4
TAP	46	168	1
TAP	46	192	4
TAP	46	240	0
TAP	46	264	5
TAP	46	288	0
STR	46	336	6
SI_	46	336	6	96	48	2
TAP	46	360	7
TAP	47	0	6
BRK	47	144	1
TAP	47	144	4
TAP	47	240	2
BRK	47	240	5
STR	47	336	1
SI_	47	336	1	96	48	5
TAP	47	360	0
TAP	48	0	1
TAP	48	144	3
BRK	48	144	6
BRK	48	240	2
TAP	48	240	5
TAP	48	336	5
TAP	48	360	4
TAP	49	0	5
TAP	49	96	2
TAP	49	120	3
TAP	49	144	2
TAP	49	240	6
TAP	49	264	7
TAP	49	288	6
TAP	50	0	4
TAP	50	0	6
TAP	50	48	5
TAP	50	48	7
TAP	50	96	0
TAP	50	96	6
TAP	50	144	1
TAP	50	144	7
TAP	50	192	0
TAP	50	192	2
TAP	50	240	1
TAP	50	240	3
TAP	50	336	2
TAP	50	360	3
STR	51	0	2
SI_	51	0	2	96	48	7
TAP	51	96	1
TAP	51	144	0
TAP	51	240	3
TAP	51	240	5
TAP	51	336	5
TAP	51	360	4
STR	52	0	5
SI_	52	0	5	96	48	0
TAP	52	96	6
TAP	52	144	7
TAP	52	240	2
TAP	52	240	4
TAP	52	336	6
TAP	52	360	7
TAP	53	0	6
TAP	53	96	2
TAP	53	120	3
TAP	53	144	2
HLD	53	240	1	96
TAP	53	336	5
TAP	54	48	0
TAP	54	48	4
TAP	54	96	1
TAP	54	96	5
TAP	54	192	3
TAP	54	192	7
TAP	54	264	1
TAP	54	264	5
STR	54	336	0
SI_	54	336	0	96	48	5
STR	54	336	1
SI_	54	336	1	96	48	4
TAP	55	0	0
TAP	55	0	1
BRK	55	144	7
BRK	55	240	7
STR	55	336	6
SI_	55	336	6	96	48	3
STR	55	336	7
SI_	55	336	7	96	48	2
TAP	56	0	6
TAP	56	0	7
BRK	56	144	0
BRK	56	240	0
TAP	56	336	1
TAP	56	360	3
TAP	57	0	1
TAP	57	96	3
TAP	57	120	5
TAP	57	144	3
TAP	57	240	5
TAP	57	264	7
TAP	57	288	5
HLD	58	0	6	240
TAP	58	48	7
TAP	58	96	0
TAP	58	144	1
TAP	58	192	2
TAP	58	240	3
STR	58	336	5
SI_	58	336	5	96	48	2
STR	58	336	7
SI_	58	336	7	96	48	2
TAP	59	0	5
TAP	59	0	7
BRK	59	144	0
BRK	59	240	0
STR	59	336	0
SI_	59	336	0	96	48	5
STR	59	336	2
SI_	59	336	2	96	48	5
TAP	60	0	0
TAP	60	0	2
BRK	60	144	7
BRK	60	240	7
TAP	60	336	6
TAP	60	360	4
TAP	61	0	6
TAP	61	96	4
TAP	61	120	2
TAP	61	144	4
TAP	61	240	2
TAP	61	264	0
TAP	61	288	2
TAP	62	0	5
TAP	62	48	4
TAP	62	72	5
TAP	62	96	4
TAP	62	144	6
TAP	62	168	3
TAP	62	192	6
TAP	62	240	2
TAP	62	264	7
TAP	62	288	2
STR	62	336	0
SI_	62	336	0	96	48	4
TAP	62	360	1
TAP	63	0	0
BRK	63	144	1
TAP	63	144	5
TAP	63	240	3
BRK	63	240	7
STR	63	336	7
SI_	63	336	7	96	48	3
TAP	63	360	6
TAP	64	0	7
TAP	64	144	2
BRK	64	144	6
BRK	64	240	0
TAP	64	240	4
TAP	64	336	6
TAP	64	360	0
TAP	65	0	7
TAP	65	96	1
TAP	65	120	3
TAP	65	144	2
TAP	65	240	5
TAP	65	264	3
TAP	65	288	4
HLD	66	0	1	240
TAP	66	48	0
TAP	66	96	7
TAP	66	144	6
TAP	66	192	5
TAP	66	240	4
TAP	66	336	0
TAP	66	336	1
TAP	66	360	2
TAP	66	360	7
HLD	67	0	3	96
HLD	67	0	6	96
BRK	67	144	7
BRK	67	240	7
TAP	67	336	6
TAP	67	336	7
TAP	67	360	0
TAP	67	360	5
HLD	68	0	1	96
HLD	68	0	4	96
BRK	68	144	0
BRK	68	240	0
TAP	68	336	0
TAP	68	360	2
TAP	69	0	4
TAP	69	96	7
TAP	69	120	5
TAP	69	144	3
TAP	69	240	1
TAP	69	240	6
TAP	69	264	2
TAP	69	264	5
TAP	69	288	3
TAP	69	288	4
BRK	69	336	1
BRK	69	336	6
TAP	70	48	3
TAP	70	48	7
TAP	70	96	4
TAP	70	96	6
TAP	70	192	1
TAP	70	192	5
TAP	70	264	0
TAP	70	264	4
TAP	70	336	3
TAP	70	336	7
STR	71	0	1
SI_	71	0	1	96	480	4
STR	71	0	5
SI_	71	0	5	96	480	0
STR	72	288	3
SI_	72	288	3	96	672	6
STR	72	288	7
SI_	72	288	7	96	672	2
TAP	75	48	0
TAP	75	72	6
TAP	75	96	7
TAP	75	120	6
TAP	75	144	0
TAP	75	192	1
TAP	75	264	2
TAP	75	336	6
STR	76	0	6
SI_	76	0	6	96	48	2
STR	76	48	2
SI_	76	48	2	96	48	5
HLD	76	144	0	96
TAP	76	240	4
TAP	76	288	5
TAP	76	336	6
TAP	77	48	7
TAP	77	72	1
TAP	77	96	0
TAP	77	120	1
TAP	77	144	7
TAP	77	192	6
TAP	77	264	5
STR	77	336	2
SI_	77	336	2	96	48	7
TAP	78	0	2
TAP	78	0	3
STR	78	96	5
SI_	78	96	5	96	48	0
TAP	78	144	4
TAP	78	144	5
STR	78	240	3
SI_	78	240	3	96	48	7
TAP	78	288	1
TAP	78	288	3
STR	79	0	4
SI_	79	0	4	96	48	0
TAP	79	48	4
TAP	79	48	6
TAP	79	144	2
TAP	79	192	0
TAP	79	192	1
TAP	79	240	2
TAP	79	240	7
TAP	79	288	6
TAP	79	288	7
TAP	79	336	0
TAP	79	336	5
STR	80	0	1
SI_	80	0	1	96	48	5
TAP	80	24	1
TAP	80	48	1
STR	80	144	6
SI_	80	144	6	96	48	2
TAP	80	168	6
TAP	80	192	6
BRK	80	336	1
BRK	80	336	5
BRK	81	48	2
BRK	81	48	6
BRK	81	96	0
BRK	81	96	4

T_REC_TAP	363
T_REC_BRK	59
T_REC_XTP	0
T_REC_HLD	48
T_REC_XHO	0
T_REC_STR	58
T_REC_BST	0
T_REC_XST	0
T_REC_TTP	0
T_REC_THO	0
T_REC_SLD	58
T_REC_ALL	586
T_NUM_TAP	421
T_NUM_BRK	59
T_NUM_HLD	48
T_NUM_SLD	58
T_NUM_ALL	586
T_JUDGE_TAP	480
T_JUDGE_HLD	113
T_JUDGE_SLD	58
T_JUDGE_ALL	651
TTM_EACHPAIRS	83
TTM_SCR_TAP	210500
TTM_SCR_BRK	153400
TTM_SCR_HLD	48000
TTM_SCR_SLD	87000
TTM_SCR_ALL	498900
TTM_SCR_S	478250
TTM_SCR_SS	493000
TTM_RAT_ACV	10119

