VERSION	0.00.00	1.03.00
FES_MODE	0
BPM_DEF	168.000	168.000	168.000	168.000
MET_DEF	4	4
RESOLUTION	384
CLK_DEF	384
COMPATIBLE_CODE	MA2

BPM	0	0	168.000
MET	0	0	4	4

TAP	2	0	0
TAP	2	96	7
STR	2	192	1
SI_	2	192	1	96	96	5
TAP	3	0	7
TAP	3	96	6
TAP	3	192	5
TAP	3	288	4
TAP	4	0	3
TAP	4	96	4
STR	4	192	2
SI_	4	192	2	96	96	7
TAP	5	0	6
TAP	5	96	5
TAP	5	192	4
BRK	5	288	3
TAP	6	0	6
TAP	6	96	7
STR	6	192	5
SI_	6	192	5	96	96	0
TAP	7	0	1
TAP	7	96	2
TAP	7	192	3
TAP	7	288	4
TAP	8	0	5
TAP	8	96	4
STR	8	192	6
SI_	8	192	6	96	96	3
TAP	9	0	2
TAP	9	96	1
TAP	9	192	0
TAP	9	288	7
TAP	10	0	6
TAP	10	96	5
TAP	10	192	4
BRK	10	288	0
BRK	10	288	7
TAP	11	0	0
TAP	11	96	2
TAP	11	96	3
TAP	11	192	0
TAP	11	288	4
TAP	11	288	5
TAP	12	0	2
TAP	12	96	5
TAP	12	96	7
TAP	12	192	4
TAP	12	288	0
TAP	12	288	2
HLD	13	0	1	288
TAP	13	96	0
TAP	13	192	7
TAP	13	288	6
BRK	14	48	0
BRK	14	96	0
BRK	14	144	0
HLD	14	288	3	96
STR	15	0	7
SCL	15	0	7	96	96	4
TAP	15	192	2
TAP	15	288	4
TAP	16	0	6
HLD	16	96	0	192
TAP	16	288	7
TAP	17	0	5
TAP	17	96	3
TAP	17	192	1
TAP	17	264	1
HLD	17	336	1	240
STR	17	336	7
SI_	17	336	7	96	144	3
BRK	18	336	4
BRK	19	0	4
TAP	19	96	1
TAP	19	192	2
TAP	19	192	3
TAP	19	288	4
TAP	20	0	5
TAP	20	0	6
TAP	20	96	7
TAP	20	192	0
TAP	20	192	1
TAP	20	288	2
STR	21	0	0
SI_	21	0	0	96	96	3
STR	21	96	4
SI_	21	96	4	96	96	7
TAP	21	288	0
BRK	22	48	7
BRK	22	96	7
BRK	22	144	7
TAP	22	288	5
STR	23	0	6
SCR	23	0	6	96	96	1
TAP	23	288	2
TAP	24	0	3
TAP	24	96	4
TAP	24	192	5
TAP	24	288	0
HLD	25	0	0	192
HLD	25	192	4	144
TAP	25	336	3
STR	26	24	3
SI_	26	24	3	96	120	0
STR	26	24	4
SI_	26	24	4	96	120	7
TAP	27	0	3
TAP	27	0	4
TAP	27	144	3
TAP	27	144	4
TAP	27	192	2
TAP	27	192	5
BRK	27	288	0
BRK	27	288	7
TAP	28	0	2
TAP	28	0	5
TAP	28	144	2
TAP	28	144	5
TAP	28	192	1
TAP	28	192	6
BRK	28	288	0
BRK	28	288	7
STR	29	0	0
SI_	29	0	0	96	144	3
STR	29	0	4
SI_	29	0	4	96	144	7
STR	30	0	3
SCL	30	0	3	96	144	0
STR	30	0	7
SCL	30	0	7	96	144	4
BRK	31	0	5
BRK	31	0	6
BRK	31	72	4
BRK	31	72	5
BRK	31	144	3
BRK	31	144	4
TAP	31	240	1
TAP	31	288	0
BRK	32	0	0
BRK	32	0	1
BRK	32	72	1
BRK	32	72	2
BRK	32	144	2
BRK	32	144	3
TAP	32	240	3
TAP	32	288	4
BRK	33	0	3
BRK	33	0	4
BRK	33	72	2
BRK	33	72	3
BRK	33	144	1
BRK	33	144	2
TAP	33	240	0
TAP	33	288	7
TAP	34	0	0
TAP	34	0	4
TAP	34	144	1
TAP	34	144	5
STR	34	288	2
SCL	34	288	2	96	288	7
STR	34	288	6
SCL	34	288	6	96	288	3
TAP	35	0	2
TAP	35	0	6
BRK	36	0	2
BRK	36	0	5
BRK	37	0	1
BRK	37	0	6
BRK	38	0	0
BRK	38	0	7
STR	38	96	0
SI_	38	96	0	96	48	4
STR	38	96	7
SI_	38	96	7	96	48	3
TAP	39	0	0
TAP	39	0	7
TAP	39	96	2
TAP	39	96	5
BRK	39	144	1
BRK	39	240	6
TAP	39	336	4
TAP	40	0	3
TAP	40	96	3
TAP	40	96	4
BRK	40	144	1
BRK	40	240	6
HLD	41	0	0	144
TAP	41	96	2
HLD	41	144	2	96
HLD	41	240	7	96
TAP	41	336	5
TAP	42	0	0
TAP	42	48	0
TAP	42	96	7
TAP	42	144	6
TAP	42	192	7
TAP	42	240	0
TAP	42	336	0
TAP	42	336	7
HLD	43	0	0	144
TAP	43	96	5
BRK	43	144	5
BRK	43	240	7
HLD	44	0	7	144
TAP	44	96	2
BRK	44	144	2
BRK	44	240	0
HLD	45	0	4	96
TAP	45	96	3
HLD	45	144	5	96
TAP	45	240	2
TAP	45	336	6
TAP	46	0	7
TAP	46	48	0
TAP	46	96	1
HLD	46	144	2	144
HLD	47	0	2	96
TAP	47	96	6
BRK	47	144	1
BRK	47	240	1
HLD	48	0	4	96
TAP	48	96	0
BRK	48	144	6
BRK	48	240	6
TAP	49	0	0
TAP	49	0	2
TAP	49	96	6
TAP	49	144	5
TAP	49	144	7
TAP	49	240	2
TAP	49	240	4
TAP	49	336	3
TAP	49	336	5
TAP	50	0	7
TAP	50	48	7
TAP	50	96	6
TAP	50	144	7
TAP	50	192	0
TAP	50	240	1
TAP	50	336	0
STR	51	0	1
SI_	51	0	1	96	48	4
STR	51	144	5
SI_	51	144	5	96	48	0
STR	52	0	6
SI_	52	0	6	96	48	3
STR	52	144	2
SI_	52	144	2	96	48	7
TAP	53	0	4
TAP	53	96	2
TAP	53	144	3
TAP	53	240	1
TAP	53	240	6
TAP	53	336	0
TAP	53	336	7
TAP	54	48	0
TAP	54	48	4
TAP	54	96	0
TAP	54	96	4
TAP	54	192	1
TAP	54	192	5
TAP	54	264	2
TAP	54	264	6
TAP	54	336	3
TAP	54	336	7
HLD	55	0	6	240
BRK	55	144	7
BRK	55	240	0
HLD	56	0	1	240
BRK	56	144	0
BRK	56	240	7
HLD	57	0	7	144
TAP	57	96	6
TAP	57	144	6
HLD	57	240	0	96
TAP	57	336	1
TAP	58	0	3
TAP	58	48	2
TAP	58	96	3
TAP	58	144	2
TAP	58	192	5
TAP	58	240	4
TAP	58	336	7
STR	59	0	0
SI_	59	0	0	96	48	4
STR	59	144	7
SI_	59	144	7	96	48	3
STR	60	0	2
SI_	60	0	2	96	48	6
STR	60	144	1
SI_	60	144	1	96	48	5
HLD	60	383	3	97
TAP	61	96	4
HLD	61	144	2	96
TAP	61	240	5
TAP	61	336	1
TAP	62	0	0
TAP	62	48	7
TAP	62	96	6
HLD	62	144	5	144
STR	63	0	6
SCL	63	0	6	96	47	3
STR	63	144	7
SCR	63	144	7	96	48	2
STR	64	0	1
SCR	64	0	1	96	48	4
STR	64	144	0
SCL	64	144	0	96	48	5
TAP	65	0	5
TAP	65	0	7
TAP	65	96	2
TAP	65	144	1
TAP	65	144	3
TAP	65	240	2
TAP	65	240	5
TAP	65	336	6
TAP	66	0	7
TAP	66	48	0
TAP	66	96	1
TAP	66	144	0
TAP	66	192	7
TAP	66	240	6
TAP	66	336	7
STR	67	0	6
SCL	67	0	6	96	48	3
STR	67	144	0
SCL	67	144	0	96	48	5
STR	68	0	1
SCR	68	0	1	96	48	4
STR	68	144	7
SCR	68	144	7	96	48	2
TAP	69	0	3
TAP	69	96	5
TAP	69	144	4
TAP	69	240	1
TAP	69	240	6
TAP	69	336	0
TAP	69	336	7
BRK	70	48	3
BRK	70	48	7
BRK	70	96	3
BRK	70	96	7
BRK	70	192	2
BRK	70	192	6
BRK	70	264	1
BRK	70	264	5
BRK	70	336	0
STR	70	336	4
SI_	70	336	4	96	528	0
HLD	71	0	4	576
STR	72	288	0
SI_	72	288	0	96	384	5
STR	72	288	7
SI_	72	288	7	96	384	2
TAP	75	48	7
TAP	75	96	0
TAP	75	144	7
TAP	75	192	0
TAP	75	192	7
TAP	75	264	0
TAP	75	264	7
TAP	75	336	0
TAP	75	336	7
TAP	76	0	1
TAP	76	48	0
TAP	76	96	7
HLD	76	144	6	96
TAP	76	240	7
TAP	76	288	0
TAP	76	336	1
TAP	77	48	4
TAP	77	96	3
TAP	77	144	4
TAP	77	192	3
TAP	77	192	4
TAP	77	264	3
TAP	77	264	4
TAP	77	336	3
TAP	77	336	4
TAP	78	0	2
TAP	78	48	3
TAP	78	96	2
TAP	78	144	3
TAP	78	240	5
TAP	78	288	4
TAP	79	0	2
TAP	79	48	3
TAP	79	144	6
TAP	79	192	7
TAP	79	240	6
TAP	79	288	7
BRK	79	336	0
TAP	80	336	0
TAP	80	336	7
TAP	81	48	0
TAP	81	48	7
BRK	81	96	1
BRK	81	96	6

T_REC_TAP	230
T_REC_BRK	67
T_REC_XTP	0
T_REC_HLD	25
T_REC_XHO	0
T_REC_STR	38
T_REC_BST	0
T_REC_XST	0
T_REC_TTP	0
T_REC_THO	0
T_REC_SLD	38
T_REC_ALL	398
T_NUM_TAP	268
T_NUM_BRK	67
T_NUM_HLD	25
T_NUM_SLD	38
T_NUM_ALL	398
T_JUDGE_TAP	335
T_JUDGE_HLD	85
T_JUDGE_SLD	38
T_JUDGE_ALL	458
TTM_EACHPAIRS	72
TTM_SCR_TAP	134000
TTM_SCR_BRK	174200
TTM_SCR_HLD	25000
TTM_SCR_SLD	57000
TTM_SCR_ALL	390200
TTM_SCR_S	372000
TTM_SCR_SS	383500
TTM_RAT_ACV	10174

