VERSION	0.00.00	1.03.00
FES_MODE	0
BPM_DEF	168.000	168.000	168.000	168.000
MET_DEF	4	4
RESOLUTION	384
CLK_DEF	384
COMPATIBLE_CODE	MA2

BPM	0	0	168.000
MET	0	0	4	4

HLD	2	0	1	288
HLD	3	0	1	288
HLD	4	0	6	288
HLD	5	0	6	288
STR	6	0	0
SI_	6	0	0	96	144	4
STR	7	0	7
SI_	7	0	7	96	144	3
STR	8	0	0
SI_	8	0	0	96	144	3
STR	8	0	7
SI_	8	0	7	96	144	4
HLD	9	0	1	288
HLD	9	0	6	288
HLD	10	0	0	288
HLD	10	0	7	288
TAP	11	0	7
TAP	11	192	6
TAP	12	0	5
TAP	12	192	4
TAP	13	0	3
TAP	13	192	2
TAP	14	0	1
TAP	14	96	1
TAP	14	192	1
TAP	15	0	0
TAP	15	192	1
TAP	16	0	2
TAP	16	192	3
TAP	17	0	4
TAP	17	192	5
TAP	18	0	6
TAP	18	96	6
TAP	18	192	6
BRK	18	288	6
TAP	19	0	7
TAP	19	192	6
TAP	19	192	7
TAP	20	0	1
TAP	20	192	0
TAP	20	192	1
TAP	21	0	3
TAP	21	192	3
TAP	21	192	4
TAP	22	0	5
TAP	22	96	5
TAP	22	192	4
TAP	22	192	5
TAP	23	0	0
TAP	23	192	0
TAP	23	192	7
TAP	24	0	2
TAP	24	192	2
TAP	24	192	3
TAP	25	0	4
TAP	25	192	4
TAP	25	192	5
TAP	26	0	6
TAP	26	96	6
BRK	26	192	0
BRK	26	192	7
HLD	27	0	1	192
TAP	27	192	3
HLD	28	0	6	192
TAP	28	192	4
HLD	29	0	2	192
TAP	29	192	3
HLD	30	0	5	192
TAP	30	192	4
STR	31	0	0
SI_	31	0	0	96	144	4
STR	32	0	7
SI_	32	0	7	96	144	3
STR	33	0	3
SI_	33	0	3	96	144	0
STR	33	0	4
SI_	33	0	4	96	144	7
TAP	34	0	0
TAP	34	0	7
TAP	34	144	0
TAP	34	144	7
STR	34	288	0
SCR	34	288	0	96	240	3
STR	34	288	7
SCL	34	288	7	96	240	4
HLD	36	0	3	192
HLD	36	0	4	192
HLD	37	0	2	192
HLD	37	0	5	192
TAP	38	0	1
TAP	38	0	6
BRK	38	192	0
BRK	38	192	7
HLD	39	0	1	144
TAP	39	144	2
TAP	39	240	2
HLD	40	0	6	144
TAP	40	144	5
TAP	40	240	5
TAP	41	0	1
TAP	41	96	0
TAP	41	192	7
TAP	41	288	6
TAP	42	0	5
TAP	42	96	4
TAP	42	192	3
TAP	42	288	2
HLD	43	0	0	144
TAP	43	144	7
TAP	43	240	7
HLD	44	0	7	144
TAP	44	144	0
TAP	44	240	0
TAP	45	0	2
TAP	45	96	3
TAP	45	192	4
TAP	45	288	5
TAP	46	0	6
TAP	46	96	7
TAP	46	192	0
TAP	46	288	1
HLD	47	0	7	144
TAP	47	144	1
TAP	47	240	1
HLD	48	0	0	144
TAP	48	144	6
TAP	48	240	6
TAP	49	0	5
TAP	49	96	5
TAP	49	192	2
TAP	49	288	2
TAP	50	0	4
TAP	50	96	4
TAP	50	192	3
TAP	50	288	3
HLD	51	0	6	144
TAP	51	144	0
BRK	51	240	0
HLD	52	0	1	144
TAP	52	144	7
BRK	52	240	7
BRK	53	0	1
BRK	53	0	6
TAP	54	48	0
TAP	54	48	7
TAP	54	96	0
TAP	54	96	7
TAP	54	192	1
TAP	54	192	6
TAP	54	264	1
TAP	54	264	6
TAP	54	336	0
TAP	54	336	7
HLD	55	0	0	384
HLD	55	0	7	384
TAP	57	0	3
TAP	57	96	5
TAP	57	192	1
TAP	57	288	7
TAP	58	0	0
TAP	58	0	7
TAP	58	96	1
TAP	58	96	6
TAP	58	192	2
TAP	58	192	5
TAP	58	288	3
TAP	58	288	4
HLD	59	0	1	144
TAP	59	144	2
BRK	59	240	3
HLD	60	0	6	144
TAP	60	144	5
BRK	60	240	4
TAP	61	0	0
TAP	61	96	6
TAP	61	192	2
TAP	61	288	4
TAP	62	0	3
TAP	62	0	4
TAP	62	96	2
TAP	62	96	5
TAP	62	192	1
TAP	62	192	6
TAP	62	288	0
TAP	62	288	7
HLD	63	0	0	144
BRK	63	144	7
BRK	63	240	6
HLD	64	0	7	144
BRK	64	144	0
BRK	64	240	1
TAP	65	0	3
TAP	65	96	2
TAP	65	192	1
TAP	65	288	0
TAP	66	0	0
TAP	66	0	4
TAP	66	96	1
TAP	66	96	5
TAP	66	192	2
TAP	66	192	6
TAP	66	288	3
TAP	66	288	7
HLD	67	0	1	144
BRK	67	144	2
BRK	67	240	1
BRK	67	240	2
HLD	68	0	6	144
BRK	68	144	5
BRK	68	240	5
BRK	68	240	6
TAP	69	0	2
TAP	69	0	6
TAP	70	48	0
TAP	70	48	7
TAP	70	96	0
TAP	70	96	7
TAP	70	192	1
TAP	70	192	6
TAP	70	264	1
TAP	70	264	6
TAP	70	336	0
TAP	70	336	7
HLD	71	0	0	576
HLD	71	0	7	576
STR	72	288	0
SCR	72	288	0	96	288	3
STR	72	288	7
SCL	72	288	7	96	288	4
TAP	75	0	0
TAP	75	96	0
TAP	75	192	2
TAP	75	288	2
TAP	76	0	4
TAP	76	96	4
TAP	76	192	6
TAP	76	288	6
TAP	77	0	7
TAP	77	96	7
TAP	77	192	5
TAP	77	288	5
TAP	78	0	3
TAP	78	96	3
TAP	78	192	1
TAP	78	288	1
TAP	79	0	0
TAP	79	0	7
TAP	79	96	1
TAP	79	96	6
TAP	79	192	2
TAP	79	192	5
TAP	79	288	3
TAP	79	288	4
HLD	80	336	0	144
HLD	80	336	7	144

T_REC_TAP	174
T_REC_BRK	21
T_REC_XTP	0
T_REC_HLD	36
T_REC_XHO	0
T_REC_STR	12
T_REC_BST	0
T_REC_XST	0
T_REC_TTP	0
T_REC_THO	0
T_REC_SLD	12
T_REC_ALL	255
T_NUM_TAP	186
T_NUM_BRK	21
T_NUM_HLD	36
T_NUM_SLD	12
T_NUM_ALL	255
T_JUDGE_TAP	207
T_JUDGE_HLD	168
T_JUDGE_SLD	12
T_JUDGE_ALL	387
TTM_EACHPAIRS	53
TTM_SCR_TAP	93000
TTM_SCR_BRK	54600
TTM_SCR_HLD	36000
TTM_SCR_SLD	18000
TTM_SCR_ALL	201600
TTM_SCR_S	193550
TTM_SCR_SS	199500
TTM_RAT_ACV	10105

